Falco - Junge Roemer EP (1984/2019) [Official Digital Download 24/96]

Posted By: shamanicus
Falco - Junge Roemer EP (1984/2019) [Official Digital Download 24/96]

Falco - Junge Roemer EP (1984/2019)
FLAC (tracks) 24-bit/96 kHz | 33:15 | 721 mb
Studio Master, Official Digital Download | Artwork: front cover

Auch diese EP enthält einen Mix, der bisher nur auf Vinyl zu bekommen war: den Specially Remixed 7" Edit. Dieser war 1984 lediglich auf einer niederländischen Single erschienen und wurde nun erstmals digital veröffentlicht.

Tracklist:

01. Junge Roemer
02. Junge Roemer (Specially Remixed 12" Version)
03. Junge Roemer (Extended Version)
04. Junge Roemer (Dub Version)
05. Junge Roemer (Single Edit)
06. Junge Roemer (Specially Remixed 7" Edit)


foobar2000 1.4 / Dynamic Range Meter 1.1.1
log date: 2020-01-14 23:46:25

––––––––––––––––––––––––––––––––––––––––
Analyzed: Falco / Junge Roemer EP
––––––––––––––––––––––––––––––––––––––––

DR Peak RMS Duration Track
––––––––––––––––––––––––––––––––––––––––
DR10 -0.79 dB -12.47 dB 4:29 01-Junge Roemer
DR9 -0.50 dB -11.43 dB 7:42 02-Junge Roemer (Specially Remixed 12" Version)
DR10 0.00 dB -12.11 dB 6:35 03-Junge Roemer (Extended Version)
DR10 -0.50 dB -12.52 dB 6:02 04-Junge Roemer (Dub Version)
DR10 -1.13 dB -12.02 dB 4:02 05-Junge Roemer (Single Edit)
DR9 -0.50 dB -10.78 dB 4:25 06-Junge Roemer (Specially Remixed 7" Edit)
––––––––––––––––––––––––––––––––––––––––

Number of tracks: 6
Official DR value: DR10

Samplerate: 96000 Hz
Channels: 2
Bits per sample: 24
Bitrate: 2948 kbps
Codec: FLAC
================================================================================




Thanks to the Original customer.