Foreigner - Head Games (1979/2013) [Official Digital Download 24/192]

Posted By: pyatak
Foreigner - Head Games (1979/2013) [Official Digital Download 24/192]

Foreigner - Head Games (1979/2013) [Official Digital Download 24/192]
FLAC (tracks) 24-bit/192 kHz | Front Cover | Time - 38:10 minutes | 1,43 GB
Hard Rock | Label: Rhino Atlantic, Official Digital Download

Head Games is the third studio album by the British-American rock band Foreigner, released on 10 September 1979 by Atlantic Records. Recorded at Atlantic Studios in New York, with additional recording and whole mixing taking place at Cherokee Studios in Los Angeles, it was the only Foreigner album co-produced by Roy Thomas Baker, best known for working on Queen's classic albums.

It marked the first appearance of new bass guitarist Rick Wills who replaced Ed Gagliardi (who was fired from the band), and was the last album with founding members Ian McDonald and Al Greenwood who would leave the band after the recording.

TRACKLIST

1. Foreigner - Dirty White Boy
2. Foreigner - Love on the Telephone
3. Foreigner - Women
4. Foreigner - I'll Get Even with You
5. Foreigner - Seventeen
6. Foreigner - Head Games
7. Foreigner - The Modern Day
8. Foreigner - Blinded by Science
9. Foreigner - Do What You Like
10. Foreigner - Rev on the Red Line

foobar2000 1.6.2 / Dynamic Range Meter 1.1.1
log date: 2021-04-06 08:41:44

––––––––––––––––––––––––––––––––––––––––
Analyzed: Foreigner / Head Games
––––––––––––––––––––––––––––––––––––––––

DR Peak RMS Duration Track
––––––––––––––––––––––––––––––––––––––––
DR13 -1.47 dB -16.16 dB 3:39 01-Dirty White Boy
DR12 -0.33 dB -15.20 dB 3:18 02-Love on the Telephone
DR13 -0.51 dB -15.87 dB 3:25 03-Women
DR12 -1.40 dB -15.72 dB 3:40 04-I'll Get Even with You
DR13 -1.61 dB -16.99 dB 4:36 05-Seventeen
DR14 -0.02 dB -15.79 dB 3:38 06-Head Games
DR13 -1.48 dB -16.47 dB 3:27 07-The Modern Day
DR13 -1.33 dB -17.77 dB 4:56 08-Blinded by Science
DR14 -0.77 dB -17.45 dB 3:59 09-Do What You Like
DR12 -1.00 dB -15.39 dB 3:36 10-Rev on the Red Line
––––––––––––––––––––––––––––––––––––––––

Number of tracks: 10
Official DR value: DR13

Samplerate: 192000 Hz
Channels: 2
Bits per sample: 24
Bitrate: 5285 kbps
Codec: FLAC
================================================================================



Thanks to the Original customer.