Frank Zappa - Absolutely Free (2012/2021) [Official Digital Download 24/192]

Posted By: pyatak
Frank Zappa - Absolutely Free (2012/2021) [Official Digital Download 24/192]

Frank Zappa - Absolutely Free (1967//2021) [Official Digital Download 24/192]
FLAC (tracks) 24-bit/192 kHz | Front Cover | Time - 43:32 minutes | 1,78 GB
Rock | Label: Frank Zappa Catalog, Official Digital Download

Absolutely Free is the second studio album by American rock band the Mothers of Invention, released on May 26, 1967 by Verve Records. Much like their 1966 debut Freak Out!, the album is a display of complex musical composition with political and social satire. The band had been augmented since Freak Out! by the addition of woodwinds player Bunk Gardner, keyboardist Don Preston, rhythm guitarist Jim Fielder, and drummer Billy Mundi; Fielder quit the group before the album was released, and his name was removed from the album credits.

TRACKLIST

1. Frank Zappa - Plastic People
2. Frank Zappa - The Duke Of Prunes
3. Frank Zappa - Amnesia Vivace
4. Frank Zappa - The Duke Regains His Chops
5. Frank Zappa - Call Any Vegetable
6. Frank Zappa - Invocation And Ritual Dance Of The Young Pumpkin
7. Frank Zappa - Soft-Sell Conclusion
8. Frank Zappa - Big Leg Emma
9. Frank Zappa - Why Don'tcha Do Me Right?
10. Frank Zappa - America Drinks
11. Frank Zappa - Status Back Baby
12. Frank Zappa - Uncle Bernie's Farm
13. Frank Zappa - Son Of Suzy Creamcheese
14. Frank Zappa - Brown Shoes Don't Make It
15. Frank Zappa - America Drinks & Goes Home

foobar2000 1.6.2 / Dynamic Range Meter 1.1.1
log date: 2021-04-02 00:33:43

––––––––––––––––––––––––––––––––––––––––
Analyzed: Frank Zappa / Absolutely Free
––––––––––––––––––––––––––––––––––––––––

DR Peak RMS Duration Track
––––––––––––––––––––––––––––––––––––––––
DR10 -1.95 dB -13.74 dB 3:41 01-Plastic People
DR9 -0.20 dB -12.00 dB 2:13 02-The Duke Of Prunes
DR8 -0.20 dB -10.11 dB 1:01 03-Amnesia Vivace
DR8 -1.16 dB -11.01 dB 1:53 04-The Duke Regains His Chops
DR9 -0.63 dB -13.38 dB 2:15 05-Call Any Vegetable
DR6 -2.14 dB -9.73 dB 6:59 06-Invocation And Ritual Dance Of The Young Pumpkin
DR8 -0.66 dB -11.10 dB 1:41 07-Soft-Sell Conclusion
DR10 -1.61 dB -13.49 dB 2:32 08-Big Leg Emma
DR9 -2.16 dB -12.69 dB 2:39 09-Why Don'tcha Do Me Right?
DR9 -1.97 dB -14.42 dB 1:53 10-America Drinks
DR9 -0.20 dB -10.97 dB 2:54 11-Status Back Baby
DR7 -1.42 dB -10.29 dB 2:11 12-Uncle Bernie's Farm
DR8 -0.70 dB -10.08 dB 1:34 13-Son Of Suzy Creamcheese
DR9 -1.59 dB -13.65 dB 7:29 14-Brown Shoes Don't Make It
DR7 -2.66 dB -12.46 dB 2:45 15-America Drinks & Goes Home
––––––––––––––––––––––––––––––––––––––––

Number of tracks: 15
Official DR value: DR8

Samplerate: 192000 Hz
Channels: 2
Bits per sample: 24
Bitrate: 5817 kbps
Codec: FLAC
================================================================================



Thanks to the Original customer.