Frank Zappa - Bongo Fury (1975/2021) [Official Digital Download 24/192]

Posted By: pyatak
Frank Zappa - Bongo Fury (1975/2021) [Official Digital Download 24/192]

Frank Zappa - Bongo Fury (1975/2021) [Official Digital Download 24/192]
FLAC (tracks) 24-bit/192 kHz | Front Cover | Time - 41:06 minutes | 1,99 GB
Rock | Label: Frank Zappa Catalog , Official Digital Download

Bongo Fury is a collaborative album by American artists Frank Zappa and the Mothers, with Captain Beefheart, released in October 1975. The live portions were recorded on May 20 and 21, 1975, at the Armadillo World Headquarters in Austin, Texas. Tracks 5, 6 and 9 (intro only) are studio tracks recorded in January 1975 during the sessions which produced One Size Fits All (1975) and much of Studio Tan (1978).

TRACKLIST

1. Frank Zappa - Debra Kadabra (Live)
2. Frank Zappa - Carolina Hard-Core Ecstasy (Live)
3. Frank Zappa - Sam With The Showing Scalp Flat Top (Live)
4. Frank Zappa - Poofter's Froth Wyoming Plans Ahead (Live)
5. Frank Zappa - 200 Years Old
6. Frank Zappa - Cucamonga
7. Frank Zappa - Advance Romance (Live)
8. Frank Zappa - Man With The Woman Head (Live)
9. Frank Zappa - Muffin Man

foobar2000 1.6.2 / Dynamic Range Meter 1.1.1
log date: 2021-04-02 00:40:31

––––––––––––––––––––––––––––––––––––––––
Analyzed: Frank Zappa / Bongo Fury
––––––––––––––––––––––––––––––––––––––––

DR Peak RMS Duration Track
––––––––––––––––––––––––––––––––––––––––
DR12 -0.30 dB -15.47 dB 3:54 01-Debra Kadabra (Live)
DR12 -0.30 dB -14.09 dB 6:00 02-Carolina Hard-Core Ecstasy (Live)
DR13 -0.30 dB -16.98 dB 2:51 03-Sam With The Showing Scalp Flat Top (Live)
DR14 -0.30 dB -15.90 dB 3:04 04-Poofter's Froth Wyoming Plans Ahead (Live)
DR12 -0.30 dB -14.43 dB 4:35 05-200 Years Old
DR13 -0.30 dB -15.67 dB 2:24 06-Cucamonga
DR12 -0.30 dB -14.06 dB 11:18 07-Advance Romance (Live)
DR13 -1.93 dB -17.64 dB 1:28 08-Man With The Woman Head (Live)
DR11 -0.30 dB -13.72 dB 5:36 09-Muffin Man
––––––––––––––––––––––––––––––––––––––––

Number of tracks: 9
Official DR value: DR13

Samplerate: 192000 Hz
Channels: 2
Bits per sample: 24
Bitrate: 6920 kbps
Codec: FLAC
================================================================================



Thanks to the Original customer.