Frank Zappa - Burnt Weeny Sandwich (1970/2021) [Official Digital Download 24/192]

Posted By: pyatak
Frank Zappa - Burnt Weeny Sandwich (1970/2021) [Official Digital Download 24/192]

Frank Zappa - Burnt Weeny Sandwich (1970/2021) [Official Digital Download 24/192]
FLAC (tracks) 24-bit/192 kHz | Front Cover | Time - 41:18 minutes | 1,78 GB
Rock | Label: Frank Zappa Catalog, Official Digital Download

Burnt Weeny Sandwich is the sixth studio album by the American rock band the Mothers of Invention, and the ninth overall by Frank Zappa, released in 1970. It consists of both studio recordings and live elements. In contrast to the next album Weasels Ripped My Flesh, which is predominantly live and song-oriented, most of Burnt Weeny Sandwich focuses on studio recordings and tightly arranged compositions.

The LP included a large triple-folded black and white poster ("The Mothers of Invention Sincerely Regret to Inform You") which has never been reproduced in any of the CD reissues.

TRACKLIST

1. Frank Zappa - WPLJ
2. Frank Zappa - Igor's Boogie, Phase One
3. Frank Zappa - Overture To A Holiday In Berlin
4. Frank Zappa - Theme From Burnt Weeny Sandwich
5. Frank Zappa - Igor's Boogie, Phase Two
6. Frank Zappa - Holiday In Berlin, Full-Blown
7. Frank Zappa - Aybe Sea
8. Frank Zappa - The Little House I Used To Live In (Live)
9. Frank Zappa - Valarie

foobar2000 1.6.2 / Dynamic Range Meter 1.1.1
log date: 2021-04-02 00:15:55

––––––––––––––––––––––––––––––––––––––––
Analyzed: Frank Zappa / Burnt Weeny Sandwich
––––––––––––––––––––––––––––––––––––––––

DR Peak RMS Duration Track
––––––––––––––––––––––––––––––––––––––––
DR10 -0.30 dB -11.30 dB 2:54 01-WPLJ
DR12 -0.30 dB -14.80 dB 0:36 02-Igor's Boogie, Phase One
DR9 -0.71 dB -11.52 dB 1:28 03-Overture To A Holiday In Berlin
DR9 -0.77 dB -11.74 dB 4:33 04-Theme From Burnt Weeny Sandwich
DR10 -4.36 dB -16.77 dB 0:36 05-Igor's Boogie, Phase Two
DR9 -0.75 dB -11.53 dB 6:25 06-Holiday In Berlin, Full-Blown
DR11 -0.78 dB -15.50 dB 2:50 07-Aybe Sea
DR10 -0.30 dB -12.69 dB 18:46 08-The Little House I Used To Live In (Live)
DR9 -0.95 dB -12.03 dB 3:14 09-Valarie
––––––––––––––––––––––––––––––––––––––––

Number of tracks: 9
Official DR value: DR10

Samplerate: 192000 Hz
Channels: 2
Bits per sample: 24
Bitrate: 6059 kbps
Codec: FLAC
================================================================================



Thanks to the Original customer.