Tags
Language
Tags

Frank Zappa - Shut Up 'n Play Yer Guitar (1981/2021) [Official Digital Download 24/192]

Posted By: pyatak
Frank Zappa - Shut Up 'n Play Yer Guitar (1981/2021) [Official Digital Download 24/192]

Frank Zappa - Shut Up 'n Play Yer Guitar (1981/2021) [Official Digital Download 24/192]
FLAC (tracks) 24-bit/192 kHz | Front Cover | Time - 01:47:11 minutes | 5,3 GB
Jazz Rock, Progressive Rock, Experemental | Label: Frank Zappa Catalog, Official Digital Download

Shut Up 'n Play Yer Guitar, a project consisting of Shut Up 'n Play Yer Guitar, Shut Up 'n Play Yer Guitar Some More and Return of the Son of Shut Up 'n Play Yer Guitar, is a series of albums by Frank Zappa. Released as separate albums in May 1981 on Barking Pumpkin Records, it was subsequently reissued as a triple album box set in 1982.

As the title implies, the album consists solely of instrumentals and improvised solos, largely performed on electric guitar. The album series was conceived after Zappa shelved a proposed live album, Warts and All, and three tracks intended for that album appear on this series.

The individual Shut Up 'n Play Yer Guitar albums and box set have been well received by critics, and Zappa subsequently produced two more albums focusing solely on guitar-oriented music: Guitar (1988) and Trance-Fusion (posthumously released in 2006).

TRACKLIST

1. Frank Zappa - Five-Five-Five
2. Frank Zappa - Hog Heaven
3. Frank Zappa - Shut Up 'N Play Yer Guitar
4. Frank Zappa - While You Were Out
5. Frank Zappa - Treacherous Cretins
6. Frank Zappa - Heavy Duty Judy
7. Frank Zappa - Soup 'N Old Clothes
8. Frank Zappa - Variations On The Carlos Santana Secret Chord Progression
9. Frank Zappa - Gee, I Like Your Pants
10. Frank Zappa - Canarsie
11. Frank Zappa - Ship Ahoy
12. Frank Zappa - The Deathless Horsie
13. Frank Zappa - Shut Up 'N Play Yer Guitar Some More
14. Frank Zappa - Pink Napkins
15. Frank Zappa - Beat It With Your Fist
16. Frank Zappa - Return Of The Son Of Shut Up 'N Play Yer Guitar
17. Frank Zappa - Pinocchio's Furniture
18. Frank Zappa - Why Johnny Can't Read
19. Frank Zappa - Stucco Homes
20. Frank Zappa - Canard Du Jour

foobar2000 1.6.2 / Dynamic Range Meter 1.1.1
log date: 2021-05-07 01:57:29

––––––––––––––––––––––––––––––––––––––––
Analyzed: Frank Zappa / Shut Up 'n Play Yer Guitar
––––––––––––––––––––––––––––––––––––––––

DR Peak RMS Duration Track
––––––––––––––––––––––––––––––––––––––––
DR11 -0.30 dB -11.69 dB 2:36 01-Five-Five-Five
DR12 -0.20 dB -14.08 dB 2:49 02-Hog Heaven
DR11 -0.30 dB -12.28 dB 5:38 03-Shut Up 'N Play Yer Guitar
DR14 -0.30 dB -16.51 dB 6:03 04-While You Were Out
DR11 -0.30 dB -13.12 dB 5:35 05-Treacherous Cretins
DR11 -0.30 dB -12.41 dB 4:39 06-Heavy Duty Judy
DR11 -0.30 dB -12.19 dB 7:57 07-Soup 'N Old Clothes
DR11 -0.30 dB -12.62 dB 3:58 08-Variations On The Carlos Santana Secret Chord Progression
DR11 -0.30 dB -13.06 dB 2:32 09-Gee, I Like Your Pants
DR12 -0.30 dB -13.73 dB 6:09 10-Canarsie
DR11 -0.34 dB -14.48 dB 5:21 11-Ship Ahoy
DR12 -0.30 dB -14.21 dB 6:20 12-The Deathless Horsie
DR11 -0.30 dB -12.49 dB 6:53 13-Shut Up 'N Play Yer Guitar Some More
DR13 -0.36 dB -16.60 dB 4:39 14-Pink Napkins
DR13 -0.30 dB -15.27 dB 1:58 15-Beat It With Your Fist
DR11 -0.30 dB -13.06 dB 8:31 16-Return Of The Son Of Shut Up 'N Play Yer Guitar
DR12 -0.30 dB -13.19 dB 2:05 17-Pinocchio's Furniture
DR12 -0.30 dB -13.39 dB 4:36 18-Why Johnny Can't Read
DR13 -0.30 dB -16.16 dB 9:08 19-Stucco Homes
DR13 -1.61 dB -19.02 dB 9:57 20-Canard Du Jour
––––––––––––––––––––––––––––––––––––––––

Number of tracks: 20
Official DR value: DR12

Samplerate: 192000 Hz
Channels: 2
Bits per sample: 24
Bitrate: 7073 kbps
Codec: FLAC
================================================================================



Thanks to the Original customer.