Tags
Language
Tags

Frank Zappa - The Crux Of The Biscuit (2016/2021) [Official Digital Download 24/96]

Posted By: pyatak
Frank Zappa - The Crux Of The Biscuit (2016/2021) [Official Digital Download 24/96]

Frank Zappa - The Crux Of The Biscuit (2016/2021) [Official Digital Download 24/96]
FLAC (tracks) 24-bit/96 kHz | Front Cover | Time - 68:59 minutes | 1,47 GB
Progressive Rock, Jazz Rock, Experemental | Label: Frank Zappa Catalog, Official Digital Download

The Crux of the Biscuit is a compilation album by American musician Frank Zappa, released in July 2016, originally intended to celebrate the 40th anniversary of his album Apostrophe ('). It is the fourth project in a series of 40th Anniversary FZ Audio Documentaries, following MOFO (2006), Lumpy Money (2009) and Greasy Love Songs (2010). The name is based on the same lyric from "Stink-Foot" that Apostrophe (') is based on—"the crux of the biscuit is the apostrophe."

TRACKLIST

1. Frank Zappa - Cosmik Debris
2. Frank Zappa - Uncle Remus (Mix Outtake)
3. Frank Zappa - Down In De Dew (Alternate Mix)
4. Frank Zappa - Apostrophe' (Mix Outtake)
5. Frank Zappa - The Story Of Don't Eat Yellow Snow/St. Alphonzo's Pancake Breakfast
6. Frank Zappa - Don't Eat Yellow The Snow/St. Alphonzo's Pancake Breakfast (Live)
7. Frank Zappa - Excentrifugal Forz (Mix Outtake)
8. Frank Zappa - Energy Frontier (Take 4)
9. Frank Zappa - Energy Frontier (Take 6 With Overdubs)
10. Frank Zappa - Energy Frontier (Bridge)
11. Frank Zappa - Cosmik Debris (Basic Tracks / Take 3)
12. Frank Zappa - Don't Eat The Yellow Snow (Basic Tracks / Alternate Take)
13. Frank Zappa - Nanook Rubs It (Basic Tracks / Outtake)
14. Frank Zappa - Nanook Rubs It (Session Outtake)
15. Frank Zappa - Frank's Last Words…

foobar2000 1.6.2 / Dynamic Range Meter 1.1.1
log date: 2021-05-07 01:43:07

––––––––––––––––––––––––––––––––––––––––
Analyzed: Frank Zappa / The Crux Of The Biscuit
––––––––––––––––––––––––––––––––––––––––

DR Peak RMS Duration Track
––––––––––––––––––––––––––––––––––––––––
DR9 -0.30 dB -11.39 dB 4:21 01-Cosmik Debris
DR10 -0.30 dB -12.01 dB 3:59 02-Uncle Remus (Mix Outtake)
DR11 -0.30 dB -12.11 dB 3:16 03-Down In De Dew (Alternate Mix)
DR9 -0.30 dB -10.53 dB 9:07 04-Apostrophe' (Mix Outtake)
DR11 -7.00 dB -20.41 dB 2:26 05-The Story Of Don't Eat Yellow Snow/St. Alphonzo's Pancake Breakfast
DR9 -0.20 dB -13.21 dB 19:27 06-Don't Eat Yellow The Snow/St. Alphonzo's Pancake Breakfast (Live)
DR11 -0.30 dB -12.28 dB 1:34 07-Excentrifugal Forz (Mix Outtake)
DR10 -0.30 dB -12.54 dB 3:04 08-Energy Frontier (Take 4)
DR11 -0.30 dB -12.30 dB 4:15 09-Energy Frontier (Take 6 With Overdubs)
DR9 -0.30 dB -10.08 dB 8:24 10-Energy Frontier (Bridge)
DR12 -0.22 dB -14.49 dB 5:12 11-Cosmik Debris (Basic Tracks / Take 3)
DR12 -0.30 dB -14.70 dB 2:12 12-Don't Eat The Yellow Snow (Basic Tracks / Alternate Take)
DR13 -0.30 dB -15.58 dB 0:43 13-Nanook Rubs It (Basic Tracks / Outtake)
DR13 -0.30 dB -14.90 dB 0:49 14-Nanook Rubs It (Session Outtake)
DR15 -3.38 dB -22.21 dB 0:16 15-Frank's Last Words…
––––––––––––––––––––––––––––––––––––––––

Number of tracks: 15
Official DR value: DR11

Samplerate: 96000 Hz
Channels: 2
Bits per sample: 24
Bitrate: 2111 kbps
Codec: FLAC
================================================================================



Thanks to the Original customer.