Frank Zappa - Tinseltown Rebellion (1981/2021) [Official Digital Download 24/192]

Posted By: pyatak
Frank Zappa - Tinseltown Rebellion (1981/2021) [Official Digital Download 24/192]

Frank Zappa - Tinseltown Rebellion (1981/2021) [Official Digital Download 24/192]
FLAC (tracks) 24-bit/192 kHz | Front Cover | Time - 68:35 minutes | 2,77 GB
Rock, Progressive Rock | Label: Frank Zappa Catalog, Official Digital Download

Tinsel Town Rebellion is a double live album released by Frank Zappa in May 1981. The album was conceived by Zappa after he scrapped the planned albums Warts and All and Crush All Boxes, and contains tracks that were intended for those albums.

TRACKLIST

1. Frank Zappa - Fine Girl
2. Frank Zappa - Easy Meat
3. Frank Zappa - For The Young Sophisticate
4. Frank Zappa - Love Of My Life
5. Frank Zappa - I Ain't Got No Heart
6. Frank Zappa - Panty Rap
7. Frank Zappa - Tell Me You Love Me
8. Frank Zappa - Now You See It - Now You Don't
9. Frank Zappa - Dance Contest
10. Frank Zappa - The Blue Light
11. Frank Zappa - Tinsel Town Rebellion
12. Frank Zappa - Pick Me, I'm Clean
13. Frank Zappa - Bamboozled By Love
14. Frank Zappa - Brown Shoes Don't Make It
15. Frank Zappa - Peaches III

foobar2000 1.6.2 / Dynamic Range Meter 1.1.1
log date: 2021-05-02 10:57:42

––––––––––––––––––––––––––––––––––––––––
Analyzed: Frank Zappa / Tinseltown Rebellion
––––––––––––––––––––––––––––––––––––––––

DR Peak RMS Duration Track
––––––––––––––––––––––––––––––––––––––––
DR13 -0.20 dB -15.27 dB 3:31 01-Fine Girl
DR13 -0.20 dB -15.43 dB 9:18 02-Easy Meat
DR14 -0.20 dB -16.35 dB 3:14 03-For The Young Sophisticate
DR13 -0.71 dB -15.16 dB 2:15 04-Love Of My Life
DR12 -0.20 dB -13.40 dB 1:59 05-I Ain't Got No Heart
DR14 -1.08 dB -18.57 dB 4:35 06-Panty Rap
DR12 -0.20 dB -13.81 dB 2:07 07-Tell Me You Love Me
DR12 -1.23 dB -16.02 dB 5:05 08-Now You See It - Now You Don't
DR15 -2.88 dB -21.09 dB 3:00 09-Dance Contest
DR12 -0.31 dB -14.59 dB 5:27 10-The Blue Light
DR12 -0.39 dB -14.21 dB 4:35 11-Tinsel Town Rebellion
DR12 -0.20 dB -14.20 dB 5:33 12-Pick Me, I'm Clean
DR12 -0.20 dB -14.17 dB 5:46 13-Bamboozled By Love
DR13 -0.20 dB -15.75 dB 7:14 14-Brown Shoes Don't Make It
DR12 -1.04 dB -15.74 dB 5:01 15-Peaches III
––––––––––––––––––––––––––––––––––––––––

Number of tracks: 15
Official DR value: DR13

Samplerate: 192000 Hz
Channels: 2
Bits per sample: 24
Bitrate: 5767 kbps
Codec: FLAC
================================================================================



Thanks to the Original customer.