Frank Zappa - You Are What You Is (1981/2021) [Official Digital Download 24/192]

Posted By: pyatak
Frank Zappa - You Are What You Is (1981/2021) [Official Digital Download 24/192]

Frank Zappa - You Are What You Is (1981/2021) [Official Digital Download 24/192]
FLAC (tracks) 24-bit/192 kHz | Front Cover | Time - 69:58 minutes | 3,09 GB
Jazz, Progressive Rock | Label: Frank Zappa Catalog, Official Digital Download

You Are What You Is is a double album by American musician Frank Zappa. It was originally released as a double album in 1981 and later by Rykodisc as a 20-song CD.

After the release of Joe's Garage, Frank Zappa set up his home studio, the Utility Muffin Research Kitchen, and planned to release a triple LP live album called Warts and All. As Warts and All reached completion, Zappa found the project to be "unwieldy" due to its length, and scrapped it, later conceiving Crush All Boxes. Crush All Boxes would have been a single LP containing the studio recordings "Doreen", "Fine Girl", "Easy Meat" (a live recording with studio overdubs) and "Goblin Girl" on the first side, with the second side being occupied by a suite consisting of the songs "Society Pages", "I'm A Beautiful Guy", "Beauty Knows No Pain", "Charlie's Enormous Mouth", "Any Downers?" and "Conehead".

During the production of Crush All Boxes, Zappa decided to scrap the album and conceive a set of releases drawing from both Warts and All and Crush All Boxes, which would emphasize different aspects of his multiple talents, formatting the two albums into You Are What You Is, Tinsel Town Rebellion and two series of live albums, Shut Up 'n Play Yer Guitar and You Can't Do That On Stage Anymore.

Zappa had performed most of the material from You Are What You Is on a tour running from March to July 1980 with a band including Ike Willis and Ray White on guitar and vocals, Tommy Mars on keyboards, Arthur Barrow on bass and keyboards and David Logeman on drums. This band recorded the basic tracks of the album in the summer of 1980 after finishing the tour, with guitarist Steve Vai and vocalist Bob Harris adding overdubs and joining the group for Zappa's fall 1980 tour. However, You Are What You Is was not released until after Tinseltown Rebellion and Shut Up 'N Play Yer Guitar although the latter two albums included material from the fall tour.

The album also included guest appearances from former band members, including Jimmy Carl Black and Motorhead Sherwood from the 60's Mothers of Invention, as well as the first appearances on record of Zappa's children Moon Unit and Ahmet.

TRACKLIST

1. Frank Zappa - Teen-age Wind
2. Frank Zappa - Harder Than Your Husband
3. Frank Zappa - Doreen
4. Frank Zappa - Goblin Girl
5. Frank Zappa - Theme From The 3rd Movement Of Sinister Footwear
6. Frank Zappa - Society Pages
7. Frank Zappa - I'm A Beautiful Guy
8. Frank Zappa - Beauty Knows No Pain
9. Frank Zappa - Charlie's Enormous Mouth
10. Frank Zappa - Any Downers?
11. Frank Zappa - Conehead
12. Frank Zappa - You Are What You Is
13. Frank Zappa - Mudd Club
14. Frank Zappa - The Meek Shall Inherit Nothing
15. Frank Zappa - Dumb All Over
16. Frank Zappa - Heavenly Bank Account
17. Frank Zappa - Suicide Chump
18. Frank Zappa - Jumbo Go Away
19. Frank Zappa - If Only She Woulda
20. Frank Zappa - Drafted Again

foobar2000 1.6.2 / Dynamic Range Meter 1.1.1
log date: 2021-05-02 10:49:36

––––––––––––––––––––––––––––––––––––––––
Analyzed: Frank Zappa / You Are What You Is
––––––––––––––––––––––––––––––––––––––––

DR Peak RMS Duration Track
––––––––––––––––––––––––––––––––––––––––
DR11 -0.20 dB -13.27 dB 3:01 01-Teen-age Wind
DR11 -0.20 dB -12.84 dB 2:28 02-Harder Than Your Husband
DR11 -0.20 dB -12.41 dB 4:44 03-Doreen
DR12 -0.49 dB -14.54 dB 4:07 04-Goblin Girl
DR13 -1.96 dB -16.44 dB 3:35 05-Theme From The 3rd Movement Of Sinister Footwear
DR13 -0.20 dB -14.42 dB 2:27 06-Society Pages
DR12 -0.20 dB -14.91 dB 1:56 07-I'm A Beautiful Guy
DR11 -0.43 dB -14.17 dB 3:01 08-Beauty Knows No Pain
DR11 -0.20 dB -12.94 dB 3:36 09-Charlie's Enormous Mouth
DR11 -0.20 dB -13.43 dB 2:08 10-Any Downers?
DR12 -0.20 dB -13.80 dB 4:27 11-Conehead
DR12 -0.20 dB -13.12 dB 4:24 12-You Are What You Is
DR13 -0.20 dB -15.20 dB 3:11 13-Mudd Club
DR13 -0.20 dB -13.99 dB 3:10 14-The Meek Shall Inherit Nothing
DR12 -0.20 dB -13.54 dB 6:14 15-Dumb All Over
DR12 -0.20 dB -14.12 dB 4:03 16-Heavenly Bank Account
DR12 -0.20 dB -14.22 dB 2:49 17-Suicide Chump
DR12 -0.84 dB -14.64 dB 3:43 18-Jumbo Go Away
DR12 -0.20 dB -13.64 dB 3:48 19-If Only She Woulda
DR11 -0.20 dB -13.06 dB 3:06 20-Drafted Again
––––––––––––––––––––––––––––––––––––––––

Number of tracks: 20
Official DR value: DR12

Samplerate: 192000 Hz
Channels: 2
Bits per sample: 24
Bitrate: 6301 kbps
Codec: FLAC
================================================================================



Thanks to the Original customer.