Frank Zappa - Zappa In New York (40th Anniversary/Deluxe Edition) (1977/2019/2021) [Official Digital Download 24/96]

Posted By: pyatak
Frank Zappa - Zappa In New York (40th Anniversary/Deluxe Edition) (1977/2019/2021) [Official Digital Download 24/96]

Frank Zappa - Zappa In New York (40th Anniversary/Deluxe Edition) (1977/2019/2021) [Official Digital Download 24/96]
FLAC (tracks) 24-bit/96 kHz | Front Cover | Time - 05:02:01 minutes | 6,09 GB
Rock | Label: Frank Zappa Catalog, Official Digital Download

Five CD set. In 1976, Frank Zappa played four historic sold-out concerts at The Palladium in New York City the week between Christmas and New Year's. In celebration of it's eventual release in 1978, Zappa In New York is being released as expanded anniversary editions to commemorate the album's recent 40th anniversary. Overseen by the Zappa Family Trust and produced by Ahmet Zappa and Vaultmeister Joe Travers. The collection, which will be housed in a limited-edition metal tin shaped like a NYC street manhole cover and includes a replica ticket from one of the shows, consists of the main album in it's original mix, newly remastered by Bob Ludwig in 2018 and available for the first time since it's debut. The four additional discs are loaded with relevant Vault nuggets and more than three hours of unreleased live performances from the NYC Palladium concerts, representing every composition played during the concerts and the best alternate performances of every tune Zappa picked for the original album, all newly mixed in 2018. To achieve the highest-level sound quality, the audio team went back to the original two-inch 24-track multi-track master tapes and transferred every reel at 96kHz 24-bit wavs. The set also comes with a 60-page book featuring previously unseen live photos by Gail Zappa alongside extensive liner notes by band members Ruth Underwood and Ray White (who were part of Zappa's band for these shows) as well as an insightful essay by Joe Travers with Australian writer Jen Jewel Brown. Underwood also contributes a solo piano version of "The Black Page" that has been newly recorded for this special edition.

TRACKLIST

1. Frank Zappa - Titties & Beer (1977 Mix/Live)
2. Frank Zappa - I Promise Not To Come In Your Mouth (1977 Mix/Live)
3. Frank Zappa - Big Leg Emma (1977 Mix/Live)
4. Frank Zappa - Sofa (1977 Mix/Live)
5. Frank Zappa - Manx Needs Women (1977 Mix/Live)
6. Frank Zappa - The Black Page Drum Solo/Black Page #1 (1977 Mix/Live)
7. Frank Zappa - Black Page #2 (1977 Mix/Live)
8. Frank Zappa - Honey, Don't You Want A Man Like Me? (1977 Mix/Live)
9. Frank Zappa - The Illinois Enema Bandit (1977 Mix/Live)
10. Frank Zappa - The Purple Lagoon (1977 Mix/Live)
11. Frank Zappa - The Most Important Musical Event Of 1976 (Live)
12. Frank Zappa - Peaches En Regalia (Deluxe Bonus Version/Live)
13. Frank Zappa - The Torture Never Stops (Deluxe Bonus Version/Live)
14. Frank Zappa - The Black Page #2 (Deluxe Bonus Version/Live)
15. Frank Zappa - Punky's Whips Intro (Live)
16. Frank Zappa - Punky's Whips (Deluxe Bonus Version/Live)
17. Frank Zappa - I Promise Not To Come In Your Mouth (Deluxe Bonus Version/Live)
18. Frank Zappa - Honey, Don't You Want A Man Like Me? (Deluxe Bonus Version/Live)
19. Frank Zappa - The Illinois Enema Bandit (Deluxe Bonus Version/Live)
20. Frank Zappa - Two For The Price Of One (Live)
21. Frank Zappa - Penis Dimension (Deluxe Bonus Version/Live)
22. Frank Zappa - Montana (Deluxe Bonus Version/Live)
23. Frank Zappa - America Drinks (Live)
24. Frank Zappa - Irate Phone Calls (Live)
25. Frank Zappa - Sofa #2 (Deluxe Bonus Version/Live)
26. Frank Zappa - The Moment You've All Been Waiting For (Live)
27. Frank Zappa - I'm The Slime (Deluxe Bonus Version/Live)
28. Frank Zappa - Pound For A Brown (Deluxe Bonus Version/Live)
29. Frank Zappa - Terry's Solo (Deluxe Bonus Version/Live)
30. Frank Zappa - The Black Page Drum Solo/Black Page #1 (Deluxe Bonus Version/Live)
31. Frank Zappa - Big Leg Emma (Deluxe Bonus Version/Live)
32. Frank Zappa - Jazz Buffs And Buff-etts (Live)
33. Frank Zappa - The Purple Lagoon (Deluxe Bonus Version/Live)
34. Frank Zappa - Find Her Finer (Deluxe Bonus Version/Live)
35. Frank Zappa - The Origin Of Manx (Live)
36. Frank Zappa - Manx Needs Women (Deluxe Bonus Version/Live)
37. Frank Zappa - Chrissy Puked Twice (Deluxe Bonus Version/Live)
38. Frank Zappa - Cruisin' For Burgers (Deluxe Bonus Version/Live)
39. Frank Zappa - The Purple Lagoon/Any Kind Of Pain (Deluxe Bonus Version/Live)
40. Frank Zappa - The Greatest New Undiscovered Group In America (Live)
41. Frank Zappa - Black Napkins (Deluxe Bonus Version/Live)
42. Frank Zappa - Dinah-Moe Humm (Deluxe Bonus Version/Live)
43. Frank Zappa - Finale (Deluxe Bonus Version/Live)
44. Frank Zappa - The Black Page #2 (Piano Version/Studio)
45. Frank Zappa - I Promise Not To Come In Your Mouth (Alternate Version/Live)
46. Frank Zappa - Chrissy Puked Twice (Vault Bonus Version/Live)
47. Frank Zappa - Cruisin' For Burgers (1977 Mix/Live)
48. Frank Zappa - Black Napkins (Vault Bonus Version/Live)
49. Frank Zappa - Punky's Whips (Unused 1977 Version)
50. Frank Zappa - The Black Page #1 (Piano Version)

foobar2000 1.6.2 / Dynamic Range Meter 1.1.1
log date: 2021-04-02 06:06:31

––––––––––––––––––––––––––––––––––––––––
Analyzed: Frank Zappa / Zappa In New York
––––––––––––––––––––––––––––––––––––––––

DR Peak RMS Duration Track
––––––––––––––––––––––––––––––––––––––––
DR13 -0.30 dB -15.69 dB 5:00 01-Titties & Beer (1977 Mix/Live)
DR12 -0.30 dB -15.01 dB 3:31 02-I Promise Not To Come In Your Mouth (1977 Mix/Live)
DR11 -0.30 dB -13.45 dB 2:19 03-Big Leg Emma (1977 Mix/Live)
DR11 -0.30 dB -14.19 dB 3:16 04-Sofa (1977 Mix/Live)
DR11 -0.30 dB -12.49 dB 1:36 05-Manx Needs Women (1977 Mix/Live)
DR12 -0.30 dB -14.49 dB 4:05 06-The Black Page Drum Solo/Black Page #1 (1977 Mix/Live)
DR11 -0.30 dB -13.15 dB 5:43 07-Black Page #2 (1977 Mix/Live)
DR12 -0.30 dB -15.07 dB 4:16 08-Honey, Don't You Want A Man Like Me? (1977 Mix/Live)
DR12 -0.30 dB -15.17 dB 12:43 09-The Illinois Enema Bandit (1977 Mix/Live)
DR12 -0.30 dB -14.09 dB 17:12 10-The Purple Lagoon (1977 Mix/Live)
DR14 -5.04 dB -23.34 dB 3:23 11-The Most Important Musical Event Of 1976 (Live)
DR11 -0.20 dB -13.19 dB 3:05 12-Peaches En Regalia (Deluxe Bonus Version/Live)
DR12 -0.20 dB -14.69 dB 11:27 13-The Torture Never Stops (Deluxe Bonus Version/Live)
DR12 -0.20 dB -13.68 dB 5:16 14-The Black Page #2 (Deluxe Bonus Version/Live)
DR14 -5.84 dB -22.87 dB 1:25 15-Punky's Whips Intro (Live)
DR11 -0.20 dB -14.03 dB 11:35 16-Punky's Whips (Deluxe Bonus Version/Live)
DR15 -0.20 dB -18.10 dB 4:03 17-I Promise Not To Come In Your Mouth (Deluxe Bonus Version/Live)
DR14 -0.20 dB -16.33 dB 4:13 18-Honey, Don't You Want A Man Like Me? (Deluxe Bonus Version/Live)
DR12 -0.20 dB -15.49 dB 15:41 19-The Illinois Enema Bandit (Deluxe Bonus Version/Live)
DR14 -5.35 dB -24.86 dB 1:51 20-Two For The Price Of One (Live)
DR13 -0.20 dB -15.90 dB 3:09 21-Penis Dimension (Deluxe Bonus Version/Live)
DR12 -0.20 dB -14.00 dB 8:05 22-Montana (Deluxe Bonus Version/Live)
DR13 -0.20 dB -15.69 dB 4:52 23-America Drinks (Live)
DR12 -4.32 dB -19.92 dB 1:38 24-Irate Phone Calls (Live)
DR12 -0.20 dB -14.09 dB 3:04 25-Sofa #2 (Deluxe Bonus Version/Live)
DR13 -3.76 dB -21.85 dB 0:58 26-The Moment You've All Been Waiting For (Live)
DR11 -0.20 dB -12.82 dB 5:38 27-I'm The Slime (Deluxe Bonus Version/Live)
DR10 -0.20 dB -12.84 dB 4:51 28-Pound For A Brown (Deluxe Bonus Version/Live)
DR14 -0.20 dB -17.70 dB 2:48 29-Terry's Solo (Deluxe Bonus Version/Live)
DR13 -0.20 dB -16.61 dB 3:54 30-The Black Page Drum Solo/Black Page #1 (Deluxe Bonus Version/Live)
DR12 -0.20 dB -13.75 dB 2:20 31-Big Leg Emma (Deluxe Bonus Version/Live)
DR15 -3.28 dB -23.15 dB 1:52 32-Jazz Buffs And Buff-etts (Live)
DR15 -0.20 dB -18.45 dB 17:00 33-The Purple Lagoon (Deluxe Bonus Version/Live)
DR15 -0.20 dB -16.89 dB 5:23 34-Find Her Finer (Deluxe Bonus Version/Live)
DR13 -3.77 dB -20.92 dB 1:49 35-The Origin Of Manx (Live)
DR12 -0.20 dB -13.57 dB 1:38 36-Manx Needs Women (Deluxe Bonus Version/Live)
DR13 -0.21 dB -16.03 dB 6:40 37-Chrissy Puked Twice (Deluxe Bonus Version/Live)
DR11 -0.24 dB -13.20 dB 9:56 38-Cruisin' For Burgers (Deluxe Bonus Version/Live)
DR11 -0.20 dB -14.16 dB 4:25 39-The Purple Lagoon/Any Kind Of Pain (Deluxe Bonus Version/Live)
DR13 -4.15 dB -21.58 dB 2:19 40-The Greatest New Undiscovered Group In America (Live)
DR12 -0.20 dB -16.86 dB 28:48 41-Black Napkins (Deluxe Bonus Version/Live)
DR11 -0.20 dB -12.91 dB 6:16 42-Dinah-Moe Humm (Deluxe Bonus Version/Live)
DR13 -0.20 dB -16.98 dB 4:41 43-Finale (Deluxe Bonus Version/Live)
DR14 -2.68 dB -19.82 dB 3:15 44-The Black Page #2 (Piano Version/Studio)
DR11 -0.30 dB -14.47 dB 3:55 45-I Promise Not To Come In Your Mouth (Alternate Version/Live)
DR12 -0.30 dB -15.26 dB 8:16 46-Chrissy Puked Twice (Vault Bonus Version/Live)
DR9 -0.30 dB -11.17 dB 9:10 47-Cruisin' For Burgers (1977 Mix/Live)
DR11 -0.30 dB -14.29 dB 10:57 48-Black Napkins (Vault Bonus Version/Live)
DR13 -0.30 dB -15.28 dB 10:56 49-Punky's Whips (Unused 1977 Version)
DR12 -2.05 dB -18.43 dB 2:13 50-The Black Page #1 (Piano Version)
––––––––––––––––––––––––––––––––––––––––

Number of tracks: 50
Official DR value: DR12

Samplerate: 96000 Hz
Channels: 2
Bits per sample: 24
Bitrate: 2279 kbps
Codec: FLAC
================================================================================



Thanks to the Original customer.