Garbage - No Gods No Masters (Deluxe) (2021) [Official Digital Download 24/96]

Posted By: pyatak
Garbage - No Gods No Masters (Deluxe) (2021) [Official Digital Download 24/96]

Garbage - No Gods No Masters (Deluxe) (2021) [Official Digital Download 24/96]
FLAC (tracks) 24-bit/44.1-96 kHz | Front Cover | Time - 83:25 minutes | 1,67 GB
Rock | Label: Infectious Music, Official Digital Download

Although they might not be the first '90s band to come to mind, it's hard to overstate Garbage's long-lasting influence on "pop" music—you can hear the industrial yet accessible dance-floor rhythms in the songs of Lady Gaga, while Billie Eilish's darker twists and turns echo those of singer Shirley Manson. For the band's seventh album, released a quarter-century after they broke through, Garbage's formula isn't so different, but they've revitalized it with lyrics that fit a shaken-up world that feels like it's rapidly changing and also not fast enough. "It was our way of trying to make sense of how fucking nuts the world is and the astounding chaos we find ourselves in," Manson has said—noting that the lyrics are critiques of racism, sexism, misogyny and capitalism. She comes out guns blazing on the industrial ass-shaker of an opener, "The Men Who Rule the World": "The men who rule the world/ Have made a fucking mess/ The history of power/ The worship of success." Her past experience of being rejected as a solo artist by her record label—for being too noir—drives the high-speed chase sounds of "The Creeps" ("They were selling me cheap out there on the street … they got a gun against my head"). "Waiting for God," inspired by the Black Lives Matter and #MeToo movements," is haunting and almost dirge-like as Manson explores the futility of hopes and prayers to deal with man's evil. Elsewhere, the ballad "Uncomfortably Me" snakes like '80s goth pop, "Anonymous XXX" slinks with a Latinx flair of driving drums and drunken horns sounds, and Manson's heaving whisper ("If I had a dick would you blow it?") prowls around a Depeche Mode-like dance-floor groove. But it's not all doom and gloom. "Flipping the Bird," as you would expect, is a lyrical kiss-off to people who pigeonhole, but it is as poppy-sounding as old hits like "Only Happy When It Rains." "This City Will Kill You" (a warning to not be lulled into danger by glamour) indulges in a Roxy Music lushness. And the title track isn't just upbeat—it's hopeful. It was inspired by a trip she took to Santiago, Chile, witnessing protests against corruption and inequality. As she sings: "Be kind, beware/ Be good, don't be scared/ Nothing lasts and no one stays/ The same forever so accept the change."

TRACKLIST

1. The Men Who Rule The World
2. The Creeps
3. Uncomfortably Me
4. Wolves
5. Waiting For God
6. Godhead
7. Anonymous XXX
8. A Woman Destroyed
9. Flipping The Bird
10. No Gods No Masters
11. This City Will Kill You
12. No Horses
13. Starman
14. Girls Talk (+ Brody Dalle)
15. Because The Night
16. On Fire
17. The Chemicals (+ Brian Aubert)
18. Destroying Angels (+ John Doe + Exene Cervenka)
19. Time Will Destroy Everything

foobar2000 1.6.2 / Dynamic Range Meter 1.1.1
log date: 2021-06-10 23:29:02

––––––––––––––––––––––––––––––––––––––––
Analyzed: Garbage / No Gods No Masters
––––––––––––––––––––––––––––––––––––––––

DR Peak RMS Duration Track
––––––––––––––––––––––––––––––––––––––––
DR5 -0.66 dB -9.33 dB 5:23 12-No Horses
DR5 0.00 dB -6.99 dB 4:09 13-Starman
DR6 -0.18 dB -8.25 dB 5:01 18-Destroying Angels (feat. John Doe & Exene Cervenka)
––––––––––––––––––––––––––––––––––––––––

Number of tracks: 3
Official DR value: DR5

Samplerate: 44100 Hz
Channels: 2
Bits per sample: 24
Bitrate: 1676 kbps
Codec: FLAC
================================================================================

––––––––––––––––––––––––––––––––––––––––
Analyzed: Garbage / No Gods No Masters
––––––––––––––––––––––––––––––––––––––––

DR Peak RMS Duration Track
––––––––––––––––––––––––––––––––––––––––
DR5 -0.30 dB -6.99 dB 4:27 01-The Men Who Rule the World
DR6 -0.30 dB -8.11 dB 3:34 02-The Creeps
DR5 -0.30 dB -7.00 dB 3:17 03-Uncomfortably Me
DR5 -0.02 dB -6.80 dB 4:17 04-Wolves
DR6 -0.30 dB -8.26 dB 4:05 05-Waiting for God
DR5 -0.30 dB -6.93 dB 4:08 06-Godhead
DR5 -0.30 dB -6.46 dB 4:08 07-Anonymous XXX
DR4 -0.30 dB -6.28 dB 5:32 08-A Woman Destroyed
DR5 -0.07 dB -7.09 dB 3:37 09-Flipping the Bird
DR5 -0.30 dB -7.07 dB 4:31 10-No Gods No Masters
DR6 -0.30 dB -7.57 dB 4:36 11-This City Will Kill You
DR4 -0.40 dB -7.96 dB 3:37 14-Girls Talk (with Brody Dalle)
DR5 -0.40 dB -7.27 dB 5:00 15-Because the Night
DR5 -0.49 dB -8.75 dB 5:07 16-On Fire
DR5 0.00 dB -7.46 dB 4:20 17-The Chemicals (with Brian Aubert)
DR4 -0.16 dB -7.27 dB 4:43 19-Time Will Destroy Everything
––––––––––––––––––––––––––––––––––––––––

Number of tracks: 16
Official DR value: DR5

Samplerate: 96000 Hz
Channels: 2
Bits per sample: 24
Bitrate: 3018 kbps
Codec: FLAC
================================================================================



Thanks to the Original customer.