Gary Burton - Take Another Look: A Career Retrospective (2018) [Official Digital Download 24/192]

Posted By: SERTiL
Gary Burton - Take Another Look: A Career Retrospective (2018) [Official Digital Download 24/192]

Gary Burton - Take Another Look: A Career Retrospective (2018)
FLAC (tracks) 24-bit/192 kHz | Time - 205:21 minutes | 5.04 GB
Studio Master, Official Digital Download | Artwork: Digital Booklet

Mack Avenue was honored to be Burton’s final home, releasing two critically acclaimed albums by his remarkable New Quartet featuring guitarist and protégé Julian Lage, bassist Scott Colley, and drummer Antonio Sánchez. But Take Another Look encompasses the entirety of Burton’s 50+-year career, from his attention-grabbing early releases for industry powerhouse RCA Victor, through his wide-ranging sessions for Atlantic and his iconic ECM recordings, on to his fusion-era reinvention on GRP and his eclectic and generation-spanning efforts for Concord and Mack Avenue.

A popular phrase in years past was “Life Begins at 60,” but Gary Burton—as he has done so often throughout his career—is rewriting the book on retirement. Having turned 70 in January, an age when most artists begin to solely look back, Burton forges ahead with his new Mack Avenue Records album, Guided Tour, which solidifies the reputation of his next great band, The New Gary Burton Quartet.

Tracklist:
01 - Joy Spring (3:41)
02 - Careful (4:14)
03 - Faded Love (3:23)
04 - Sing Me Softly of the Blues (4:06)
05 - General Mojo’s Well Laid Plan (5:01)
06 - Fanfare / Mother of the Dead Man (2:55)
07 - Country Roads (5:08)
08 - One, Two, 1-2-3-4 (Live) (9:54)
09 - Chega de Saudade (No More Blues) (4:43)
10 - Las Vegas Tango (6:33)
11 - Boston Marathon (7:22)
12 - Grow Your Own (4:55)
13 - Como En Vietnam (7:05)
14 - Daphne (4:10)
15 - Sweet Rain (3:41)
16 - Nuevo Tango (Live) (5:39)
17 - Crystal Silence (9:05)
18 - Mevlevia (6:04)
19 - Goodbye Pork Pie Hat (4:24)
20 - Ictus / Syndrome / Wrong Key Donkey (10:25)
21 - B & G (Midwestern Nights Dream) (8:22)
22 - Times Like These (6:34)
23 - Otoño (Autumn) (4:27)
24 - Quick and Running (6:43)
25 - Knockin’ on Wood (3:40)
26 - Opus Half (5:25)
27 - Gorgeous (7:41)
28 - Take Another Look (6:40)
29 - Native Sense (6:32)
30 - Hot House (3:54)
31 - Question and Answer (6:26)
32 - Le Tombeau de Couperin I – Prelude (5:20)
33 - Elucidation (7:27)
34 - Late Night Sunrise (6:37)
35 - Caminos (7:19)

Personnel:
Gary Burton, vibraphone, percussion

foobar2000 1.3.7 / Dynamic Range Meter 1.1.1
log date: 2018-11-19 12:11:59

––––––––––––––––––––––––––––––––––––––––
Analyzed: Gary Burton / Take Another Look: a Career Retrospective
––––––––––––––––––––––––––––––––––––––––

DR Peak RMS Duration Track
––––––––––––––––––––––––––––––––––––––––
DR9 -0.10 dB -11.34 dB 3:41 01-Joy Spring
DR9 -0.10 dB -12.18 dB 4:14 02-Careful
DR10 -0.10 dB -12.07 dB 3:23 03-Faded Love
DR9 -0.10 dB -11.40 dB 4:06 04-Sing Me Softly of the Blues
DR9 -0.10 dB -11.90 dB 5:01 05-General Mojo’s Well Laid Plan
DR9 -0.10 dB -12.58 dB 2:55 06-Fanfare / Mother of the Dead Man
DR12 -0.10 dB -14.58 dB 5:08 07-Country Roads
DR11 -0.10 dB -15.37 dB 9:54 08-One, Two, 1-2-3-4 (Live)
DR10 -0.10 dB -13.01 dB 4:43 09-Chega de Saudade (No More Blues)
DR8 0.00 dB -10.62 dB 6:33 10-Las Vegas Tango
DR11 -0.60 dB -13.07 dB 7:22 11-Boston Marathon
DR11 -0.02 dB -13.68 dB 4:55 12-Grow Your Own
DR11 -0.10 dB -13.34 dB 7:05 13-Como En Vietnam
DR10 0.00 dB -11.44 dB 4:10 14-Daphne
DR10 -0.02 dB -13.64 dB 3:41 15-Sweet Rain
DR11 -0.10 dB -13.07 dB 5:39 16-Nuevo Tango (Live)
DR12 -0.10 dB -17.54 dB 9:05 17-Crystal Silence
DR9 -0.10 dB -12.22 dB 6:04 18-Mevlevia
DR10 -0.10 dB -12.98 dB 4:24 19-Goodbye Pork Pie Hat
DR9 -0.10 dB -10.68 dB 10:25 20-Ictus / Syndrome / Wrong Key Donkey
DR11 -0.10 dB -13.93 dB 8:22 21-B & G (Midwestern Nights Dream)
DR12 -0.10 dB -14.57 dB 6:34 22-Times Like These
DR10 -0.10 dB -13.48 dB 4:27 23-Otoño (Autumn)
DR10 -0.10 dB -13.12 dB 6:43 24-Quick and Running
DR10 -0.10 dB -13.75 dB 3:40 25-Knockin’ on Wood
DR11 -0.10 dB -14.45 dB 5:25 26-Opus Half
DR10 -0.10 dB -13.24 dB 7:41 27-Gorgeous
DR10 -0.10 dB -11.81 dB 6:40 28-Take Another Look
DR11 -0.10 dB -14.86 dB 6:32 29-Native Sense
DR9 -0.10 dB -10.75 dB 3:54 30-Hot House
DR10 -0.10 dB -11.64 dB 6:26 31-Question and Answer
DR10 -0.10 dB -12.63 dB 5:20 32-Le Tombeau de Couperin I – Prelude
DR9 -0.10 dB -10.41 dB 7:27 33-Elucidation
DR7 -0.10 dB -9.11 dB 6:37 34-Late Night Sunrise
DR11 -0.10 dB -13.76 dB 7:19 35-Caminos
––––––––––––––––––––––––––––––––––––––––

Number of tracks: 35
Official DR value: DR10

Samplerate: 192000 Hz
Channels: 2
Bits per sample: 24
Bitrate: 4383 kbps
Codec: FLAC
================================================================================


Thanks to the Original customer.