Tags
Language
Tags

Gary Barlow - The Dream of Christmas (Deluxe) (2021) [Official Digital Download]

Posted By: pyatak
Gary Barlow - The Dream of Christmas (Deluxe) (2021) [Official Digital Download]

Gary Barlow - The Dream of Christmas (Deluxe) (2021) [Official Digital Download]
FLAC (tracks) 24-bit/44.1 kHz | Front Cover | Time - 48:56 minutes | 567 MB
Pop, X-Mas | Label: Polydor Records, Official Digital Download

Gary Barlow’s first-ever Christmas album - ‘The Dream Of Christmas’. Featuring brand new original songs and beautifully orchestrated Christmas classics, ‘The Dream Of Christmas’ is a glorious, sleigh-belled, snow-filled magical ride through the sound of Christmas and the perfect musical accompaniment to the festive season. The album is brimming with festive cheer and Christmas spirit and Gary’s contemporary compositions, in which he sings of warm Christmas memories, sit perfectly alongside timeless classics well-known and loved by many.

TRACKLIST

01. Gary Barlow - The Dream Of Christmas
02. Gary Barlow - Sleigh Ride
03. Gary Barlow - Wonderful Christmastime
04. Gary Barlow - How Christmas Is Supposed To Be
05. Gary Barlow - This Christmas
06. Gary Barlow - Come On Christmas
07. Gary Barlow - My Dear Acquaintance
08. Gary Barlow - Winter Wonderland
09. Gary Barlow - The Colder It Feels
10. Gary Barlow - Merry Christmas Everyone
11. Gary Barlow - A Child's Christmas In Wales
12. Gary Barlow - I've Got My Love To Keep Me Warm
13. Gary Barlow - I Believe In Father Christmas
14. Gary Barlow - In The Bleak Midwinter
15. Gary Barlow - It's The Most Wonderful Time Of The Year
16. Gary Barlow - Christmas Sweater

foobar2000 1.6.2 / Dynamic Range Meter 1.1.1
log date: 2021-11-25 15:10:25

––––––––––––––––––––––––––––––––––––––––
Analyzed: Gary Barlow / The Dream of Christmas
––––––––––––––––––––––––––––––––––––––––

DR Peak RMS Duration Track
––––––––––––––––––––––––––––––––––––––––
DR9 -0.20 dB -14.05 dB 3:33 01-The Dream Of Christmas
DR8 -0.20 dB -11.08 dB 2:57 02-Sleigh Ride
DR8 -0.20 dB -10.65 dB 2:26 03-Wonderful Christmastime
DR8 -0.20 dB -10.04 dB 2:39 04-How Christmas Is Supposed To Be
DR8 -0.20 dB -10.24 dB 2:43 05-This Christmas
DR9 -0.20 dB -11.53 dB 3:44 06-Come On Christmas
DR8 -0.20 dB -11.42 dB 2:39 07-My Dear Acquaintance
DR9 -0.20 dB -11.42 dB 2:07 08-Winter Wonderland
DR9 -0.20 dB -13.00 dB 2:53 09-The Colder It Feels
DR9 -0.20 dB -13.02 dB 2:41 10-Merry Christmas Everyone
DR8 -0.20 dB -12.14 dB 3:53 11-A Child's Christmas In Wales
DR8 -0.20 dB -10.57 dB 2:39 12-I've Got My Love To Keep Me Warm
DR10 -0.20 dB -12.08 dB 3:25 13-I Believe In Father Christmas
DR8 -0.21 dB -12.21 dB 3:24 14-In The Bleak Midwinter
DR9 -0.20 dB -11.54 dB 3:07 15-It's The Most Wonderful Time Of The Year
DR9 -0.20 dB -11.36 dB 4:05 16-Christmas Sweater
––––––––––––––––––––––––––––––––––––––––

Number of tracks: 16
Official DR value: DR9

Samplerate: 44100 Hz
Channels: 2
Bits per sample: 24
Bitrate: 1655 kbps
Codec: FLAC
================================================================================



Thanks to the Original customer.