Georg Solti - Verdi: Aida (1962/2017) [Official Digital Download 24/96]

Posted By: SERTiL
Georg Solti - Verdi: Aida (1962/2017) [Official Digital Download 24/96]

Georg Solti - Verdi: Aida (1962/2017)
FLAC (tracks) 24-bit/96 kHz | Time - 152:08 minutes | 2.69 GB
Studio Master, Official Digital Download | Artwork: Digital booklet

Soprano Leontyne Price is joined by Jon Vickers, Rita Gorr, Robert Merrill, the Coro del Teatro dell' Opera di Roma, and the Orchestra del Teatro dell' Opera di Roma conducted by Georg Solti.
Decca marks the 90th birthday of Leontyne Price with the soprano leading casts conducted by Sir Georg Solti and Herbert von Karajan.

TRACKLIST

Giuseppe Verdi (1813 - 1901)

1 Overture 04:07

Act 1
2 Sì: corre voce che l'Etiope ardisca 01:41
3 "Se quel guerrier io fossi!..Celeste Aida" 04:38
4 Quale insolita gioia 06:33
5 "Alta cagion v'aduna" 06:31
6 "Ritorna vincitor!" 07:28
7 Possente, possente Fthà 05:57
8 Mortal, diletto ai Numi 05:29

Act 2
9 Chi mai fra gl'inni e i plausi 06:44
10 Fu la sorte dell'armi a'tuoi funesta 07:50
11 Su! del Nilo al sacro lido0 2:43
12 Gloria all'Egitto, ad Iside 03:18
13 Marcia 06:03
14 Vieni, o guerriero vindice 02:19
15 Salvator della patria, io ti saluto 02:02
16 Che veggo!…Egli?…Mio padre! 01:01
17 Quest'assisa ch'io vesto vi dica 01:04
18 "Ma tu, Re, tu signore possente" 04:10
19 O Re: pei sacri Numi 02:23
20 Gloria all'Egitto, ad Iside 03:10

Act 3
21 O tu che sei d'Osiride 05:01
22 Qui Radames verrà!…O Patria mia 07:14
23 Ciel! mio padre! 08:04
24 Pur ti riveggo, mia dolce Aida 02:56
25 "Fuggiam gli ardori inospiti" 06:43
26 "Tu…Amonasro!…tu!…il Re?" 02:42

Act 4
27 "L'aborrita rivale a me sfuggia" 03:16
28Già i Sacerdoti adunansi 06:53
29Ohimè!…morir mi sento! Oh! chi lo salva? 04:50
30 Radamès! Radamès! Radamès! 07:00
31 La fatal pietra sovra me si chiuse 02:29
32 Presago il core della tua condonna 04:20
33 O terra, addio; addio valle di pianti 05:46

PERSONNEL
Leontyne Price, soprano
Jon Vickers, tenor
Rita Gorr, mezzo-soprano
Robert Merrill, baritone
Coro del Teatro dell' Opera di Roma
Orchestra del Teatro dell' Opera di Roma
Georg Solti, conductor

foobar2000 1.3.7 / Dynamic Range Meter 1.1.1
log date: 2017-07-17 21:27:23

––––––––––––––––––––––––––––––––––––––––
Analyzed: Leontyne Price / Verdi: Aida
––––––––––––––––––––––––––––––––––––––––

DR Peak RMS Duration Track
––––––––––––––––––––––––––––––––––––––––
DR10 0.00 dB -17.37 dB 4:07 01-Verdi: Aida - Overture
DR13 -2.74 dB -26.56 dB 1:41 02-Verdi: Aida / Act 1 - Sì: corre voce che l'Etiope ardisca
DR12 -0.07 dB -17.60 dB 4:38 03-Verdi: Aida / Act 1 - Se quel guerrier io fossi!..Celeste Aida
DR12 0.00 dB -18.03 dB 6:33 04-Verdi: Aida / Act 1 - Quale insolita gioia
DR10 0.00 dB -14.28 dB 6:31 05-Verdi: Aida / Act 1 - Alta cagion v'aduna
DR13 0.00 dB -18.75 dB 7:28 06-Verdi: Aida / Act 1 - Ritorna vincitor!
DR17 -5.30 dB -29.73 dB 5:57 07-Verdi: Aida / Act 1 - Possente, possente Fthà
DR9 0.00 dB -14.46 dB 5:29 08-Verdi: Aida / Act 1 - Mortal, diletto ai Numi
DR13 0.00 dB -18.50 dB 6:44 09-Verdi: Aida / Act 2 - Chi mai fra gl'inni e i plausi
DR13 0.00 dB -19.19 dB 7:50 10-Verdi: Aida / Act 2 - Fu la sorte dell'armi a'tuoi funesta
DR12 0.00 dB -17.29 dB 2:43 11-Verdi: Aida / Act 2 - Su! del Nilo al sacro lido
DR11 -0.01 dB -15.64 dB 3:18 12-Verdi: Aida / Act 2 - Gloria all'Egitto, ad Iside
DR12 0.00 dB -16.36 dB 6:03 13-Verdi: Aida / Act 2 - Marcia
DR9 0.00 dB -11.12 dB 2:19 14-Verdi: Aida / Act 2 - Vieni, o guerriero vindice
DR13 -2.46 dB -22.16 dB 2:02 15-Verdi: Aida / Act 2 - Salvator della patria, io ti saluto
DR10 0.00 dB -15.04 dB 1:01 16-Verdi: Aida / Act 2 - Che veggo!…Egli?…Mio padre!
DR13 -0.07 dB -18.99 dB 1:04 17-Verdi: Aida / Act 2 - Quest'assisa ch'io vesto vi dica
DR9 0.00 dB -13.60 dB 4:10 18-Verdi: Aida / Act 2 - Ma tu, Re, tu signore possente
DR15 -0.05 dB -21.01 dB 2:23 19-Verdi: Aida / Act 2 - O Re: pei sacri Numi
DR9 0.00 dB -11.61 dB 3:10 20-Verdi: Aida / Act 2 - Gloria all'Egitto, ad Iside
DR14 -6.97 dB -26.80 dB 5:01 21-Verdi: Aida / Act 3 - O tu che sei d'Osiride
DR14 -0.04 dB -20.00 dB 7:14 22-Verdi: Aida / Act 3 - Qui Radames verrà!…O Patria mia
DR12 0.00 dB -17.23 dB 8:04 23-Verdi: Aida / Act 3 - Ciel! mio padre!
DR12 -0.02 dB -17.35 dB 2:56 24-Verdi: Aida / Act 3 - Pur ti riveggo, mia dolce Aida
DR11 0.00 dB -16.37 dB 6:43 25-Verdi: Aida / Act 3 - Fuggiam gli ardori inospiti
DR10 0.00 dB -13.60 dB 2:42 26-Verdi: Aida / Act 3 - Tu…Amonasro!…tu!…il Re?
DR13 -0.04 dB -19.38 dB 3:16 27-Verdi: Aida / Act 4 - L'aborrita rivale a me sfuggia
DR12 0.00 dB -16.37 dB 6:53 28-Verdi: Aida / Act 4 - Già i Sacerdoti adunansi
DR12 -0.14 dB -19.51 dB 4:50 29-Verdi: Aida / Act 4 - Ohimè!…morir mi sento! Oh! chi lo salva?
DR10 0.00 dB -14.87 dB 7:00 30-Verdi: Aida / Act 4 - Radamès! Radamès! Radamès!
DR15 -0.07 dB -22.13 dB 2:29 31-Verdi: Aida / Act 4 - La fatal pietra sovra me si chiuse
DR16 -0.35 dB -22.34 dB 4:20 32-Verdi: Aida / Act 4 - Presago il core della tua condonna
DR13 -1.30 dB -19.65 dB 5:46 33-Verdi: Aida / Act 4 - O terra, addio; addio valle di pianti
––––––––––––––––––––––––––––––––––––––––

Number of tracks: 33
Official DR value: DR12

Samplerate: 96000 Hz
Channels: 2
Bits per sample: 24
Bitrate: 2456 kbps
Codec: FLAC
================================================================================


Thanks to the Original customer.