Tags
Language
Tags

George Michael - Listen Without Prejudice (Remastered) (1990/2022) [Official Digital Download]

Posted By: pyatak
George Michael - Listen Without Prejudice (Remastered) (1990/2022) [Official Digital Download]

George Michael - Listen Without Prejudice (Remastered) (1990/2022) [Official Digital Download]
FLAC (tracks) 24-bit/44.1 kHz | Front Cover | Time - 48:18 minutes | 547 MB
Pop Rock | Studio Master, Official Digital Download

Listen Without Prejudice Vol. 1 is the second solo studio album by the English singer-songwriter George Michael, released on 3 September 1990 by Columbia Records (Epic Records in the UK). The album was Michael's final album of all-new material on Columbia until 2004's Patience. Listen Without Prejudice was a stark departure from Michael's previous album, 1987's Faith, with largely acoustic instrumentation and a sombre intensity in many of the lyrics and melodies. While the album topped the UK Albums Chart, disappointing sales in the United States led to Michael's legal battles against Sony Music, in which he accused the corporation of not fully supporting him as an artist.

Listen Without Prejudice was reissued across a number of formats on 20 October 2017 and again topped the UK Albums Chart, 27 years after it first reached number one on the chart.

TRACKLIST

01. George Michael - Praying for Time (Remastered)
02. George Michael - Freedom! '90 (Remastered)
03. George Michael - They Won't Go When I Go (Remastered)
04. George Michael - Something to Save (Remastered)
05. George Michael - Cowboys and Angels (Remastered)
06. George Michael - Waiting forThat Day (Remastered)
07. George Michael - Mothers Pride (Remastered)
08. George Michael - Heal the Pain (Remastered)
09. George Michael - Soul Free (Remastered)
10. George Michael - Waiting (Reprise) (Remastered)

foobar2000 1.6.2 / Dynamic Range Meter 1.1.1
log date: 2022-05-25 15:20:00

––––––––––––––––––––––––––––––––––––––––
Analyzed: George Michael / Listen Without Prejudice (Remastered)
––––––––––––––––––––––––––––––––––––––––

DR Peak RMS Duration Track
––––––––––––––––––––––––––––––––––––––––
DR15 -0.67 dB -18.60 dB 4:41 01-Praying for Time (Remastered)
DR12 -1.08 dB -15.59 dB 6:31 02-Freedom! '90 (Remastered)
DR12 -3.74 dB -20.62 dB 5:07 03-They Won't Go When I Go (Remastered)
DR14 -0.91 dB -19.23 dB 3:18 04-Something to Save (Remastered)
DR14 -1.85 dB -18.35 dB 7:15 05-Cowboys and Angels (Remastered)
DR12 0.00 dB -14.09 dB 4:50 06-Waiting forThat Day (Remastered)
DR13 -3.75 dB -20.03 dB 3:59 07-Mothers Pride (Remastered)
DR14 0.00 dB -15.51 dB 4:40 08-Heal the Pain (Remastered)
DR13 -0.70 dB -15.42 dB 5:31 09-Soul Free (Remastered)
DR13 -1.91 dB -19.01 dB 2:27 10-Waiting (Reprise) (Remastered)
––––––––––––––––––––––––––––––––––––––––

Number of tracks: 10
Official DR value: DR13

Samplerate: 44100 Hz
Channels: 2
Bits per sample: 24
Bitrate: 1488 kbps
Codec: FLAC
================================================================================



Thanks to the Original customer.