Subcategories

Stile Antico - Giaches de Wert: Divine Theatre, Sacred Motets (2017) [Official Digital Download 24/88]

Posted By: SERTiL
Stile Antico - Giaches de Wert: Divine Theatre, Sacred Motets (2017) [Official Digital Download 24/88]

Stile Antico - Giaches de Wert: Divine Theatre, Sacred Motets (2017)
FLAC (tracks) 24-bit/88.2 kHz | Time - 77:12 minutes | 1.18 GB
Studio Master, Official Digital Download | Artwork: Digital booklet

Franco-Flemish composer Giaches de Wert wrote a considerable amount of sacred music during the late Renaissance, but little of it was published during his lifetime. Only three books of motets were released in 1566 and 1581. Stile Antico's new album introduces us to another side of this composer who, though Flemish-born, spent most of his life in Italy, primarily in Mantua, where he was to remain for the rest of his life, though not without maintaining connections (both musical and, during the mid-late 1580s, romantic) with the court at Ferrara, where the lively musical life must have been a welcome distraction from his not-always-happy existence at the Mantuan court. The unique and dramatic style of these remarkable motets cannot fail to ravish explorers of this 'divine theatre'.

"In short, this was a cappella heaven." (Michael Church, The Independent)

TRACKLIST

Giaches de Wert (1535-1596)

1 Gaudete in Domino 01:32
2 Hoc enim sentite in vobis 07:33
3 Saule, Saule 03:46
4 Vox in Rama audita est 04:46
5 Amen, amen dico vobis 05:51
6 Egressus Jesus 06:09
7 Peccavi super numerum 08:07
8 O Crux ave, spes unica 03:40
9 Ascendente Jesu in naviculam 05:03
10 Virgo Maria hodie ad coelum 04:54
11 Quiescat vox tua a ploratu 07:23
12 Deus iustus, et salvans 03:02
13 O altitudo divitiarum 05:26

foobar2000 1.3.7 / Dynamic Range Meter 1.1.1
log date: 2017-09-13 20:44:12

––––––––––––––––––––––––––––––––––––––––
Analyzed: Stile Antico / Giaches de Wert: Divine Theatre, Sacred Motets
––––––––––––––––––––––––––––––––––––––––

DR Peak RMS Duration Track
––––––––––––––––––––––––––––––––––––––––
DR10 -1.88 dB -17.34 dB 1:33 01-Gaudete in Domino
DR14 -0.24 dB -19.24 dB 7:34 02-Hoc enim sentite in vobis
DR13 -1.09 dB -19.92 dB 3:47 03-Saule, Saule
DR11 -1.02 dB -18.87 dB 4:47 04-Vox in Rama audita est
DR13 -0.12 dB -18.57 dB 5:51 05-Amen, amen dico vobis
DR12 -2.23 dB -20.65 dB 6:09 06-Egressus Jesus
DR13 -0.16 dB -18.75 dB 8:07 07-Peccavi super numerum
DR11 -6.46 dB -21.99 dB 3:40 08-O Crux ave, spes unica
DR12 -4.90 dB -24.26 dB 5:04 09-Ascendente Jesu in naviculam
DR13 -3.01 dB -19.99 dB 4:54 10-Virgo Maria hodie ad coelum
DR12 -8.04 dB -24.42 dB 7:24 11-Quiescat vox tua a ploratu
DR12 -1.13 dB -18.32 dB 3:02 12-Deus iustus, et salvans
DR12 -2.43 dB -19.54 dB 5:26 13-O altitudo divitiarum
––––––––––––––––––––––––––––––––––––––––

Number of tracks: 13
Official DR value: DR12

Samplerate: 88200 Hz
Channels: 2
Bits per sample: 24
Bitrate: 2534 kbps
Codec: FLAC
================================================================================


Thanks to the Original customer.