GoGo Penguin - GoGo Penguin (2020) [Official Digital Download 24/96]

Posted By: pyatak
GoGo Penguin - GoGo Penguin (2020) [Official Digital Download 24/96]

GoGo Penguin - GoGo Penguin (2020) [Official Digital Download 24/96]
FLAC (tracks) 24-bit/96 kHz | Front Cover | Time - 43:45 minutes | 882 MB
Jazz | Label: Blue Note Records, Official Digital Download

Today, UK instrumental trio GoGo Penguin announced a May 1st release date for their upcoming self-titled album, the band's sixth full-length and their third for Blue Note Records. The announcement comes with the first single "Atomised," a firm favorite of the band's that has GGP gliding over a powerful UK garage beat with a propulsive groove that makes for another hands-in-the-air classic.

When a musical ensemble chooses to self-title an album mid-career, it usually signifies their conviction that they've struck upon the motherlode, hit the jackpot, stepped up and generally arrived at a point they've always striven for but never quite attained before.

TRACKLIST

1. GoGo Penguin - 1_#
2. GoGo Penguin - Atomised
3. GoGo Penguin - Signal In The Noise
4. GoGo Penguin - Open
5. GoGo Penguin - F Maj Pixie
6. GoGo Penguin - Kora
7. GoGo Penguin - Totem
8. GoGo Penguin - Embers
9. GoGo Penguin - To The Nth
10. GoGo Penguin - Don’t Go

foobar2000 1.3.16 / Dynamic Range Meter 1.1.1
log date: 2020-06-05 04:25:27

––––––––––––––––––––––––––––––––––––––––
Analyzed: GoGo Penguin / GoGo Penguin
––––––––––––––––––––––––––––––––––––––––

DR Peak RMS Duration Track
––––––––––––––––––––––––––––––––––––––––
DR11 -0.20 dB -14.97 dB 2:02 01-1_#
DR7 -0.20 dB -10.36 dB 4:23 02-Atomised
DR7 -0.20 dB -9.59 dB 6:03 03-Signal In The Noise
DR6 -0.20 dB -8.66 dB 4:47 04-Open
DR8 -0.20 dB -9.64 dB 5:49 05-F Maj Pixie
DR7 -0.20 dB -10.10 dB 5:35 06-Kora
DR7 -0.20 dB -9.44 dB 3:54 07-Totem
DR9 -0.20 dB -13.39 dB 3:00 08-Embers
DR7 -0.20 dB -9.57 dB 4:34 09-To The Nth
DR12 -0.20 dB -14.52 dB 3:38 10-Don’t Go
––––––––––––––––––––––––––––––––––––––––

Number of tracks: 10
Official DR value: DR8

Samplerate: 96000 Hz
Channels: 2
Bits per sample: 24
Bitrate: 2334 kbps
Codec: FLAC
================================================================================



Thanks to the Original customer.