Steve Hackett - Bay Of Kings (1983 LP/FLAC) New Rip In 24bit/96kHz

Posted By: Fran Solo
Steve Hackett - Bay Of Kings (1983 LP/FLAC) New Rip In 24bit/96kHz

Steve Hackett - Bay Of Kings
Vinyl | LOG | CUE | FLAC | Tags | Full LP Cover (1:1)
24bit/96kHz: 758mb – 16bit/44kHz: 193mb
Genre: Symphonic-Rock | Chrysalis PV 41572 | Release: 1983
Steve Hackett - Bay Of Kings (1983 LP/FLAC) New Rip In 24bit/96kHz

Steve Hackett - Bay Of Kings (1983 LP/FLAC) New Rip In 24bit/96kHz

Steve Hackett - Bay Of Kings (1983 LP/FLAC) New Rip In 24bit/96kHz

Side A
1. Bay Of Kings
2. The Journey
3. Kim (Re-Arranged Version)
4. Marigold
5. St Elmo's Fire
Side B
6. Petropolis
7. Second Chance
8. Cast Adrift
9. Horizons
10. Black Light
11. The Barren Land
12. Calmaria

–––––––––––––––––––––––––––––––––––––––––––––––
Analyzed folder: Steve Hackett - Bay of Kings (LP)
–––––––––––––––––––––––––––––––––––––––––––––––
DR Peak RMS Filename
–––––––––––––––––––––––––––––––––––––––––––––––

DR12 -4.44 dB -19.25 dB 01 Steve Hackett - LADO 1- Bay Of Kings.wav
DR12 -4.48 dB -19.33 dB 02 Steve Hackett - The Journey.wav
DR11 -5.93 dB -20.03 dB 03 Steve Hackett - Kim (Re-Arranged Version).wav
DR12 -4.58 dB -19.49 dB 04 Steve Hackett - Marigold.wav
DR11 -4.97 dB -18.20 dB 05 Steve Hackett - St Elmo's Fire.wav
DR13 -6.23 dB -22.17 dB 06 Steve Hackett - LADO 2- Petropolis.wav
DR10 -7.68 dB -18.86 dB 07 Steve Hackett - Second Chance.wav
DR12 -3.38 dB -17.85 dB 08 Steve Hackett - Cast Adrift.wav
DR13 -5.61 dB -22.49 dB 09 Steve Hackett - Horizons.wav
DR11 -6.03 dB -20.69 dB 10 Steve Hackett - Black Light.wav
DR12 -3.90 dB -18.58 dB 11 Steve Hackett - The Barren Land.wav
DR11 -4.68 dB -19.08 dB 12 Steve Hackett - Calmaria.wav
–––––––––––––––––––––––––––––––––––––––––––––––

Number of files: 12
Official DR value: DR12

==============================================================================================

Pure Analog Rip
Direct Drive Turntable: Marantz 6170
Cartridge: SHURE M97xE
Amplifier: Sansui 9090DB
Cleaning
Moth MkII Pro Vinyl Record Cleaning Machine
LE-BO Magnetic Record Cleaner – PICKERING Antistatic Carbon Fibre
Edition
Adobe Audition CS 5.5 – xACT & XLD (lossless)
Redbook Conversion: Izotope RX Advanced
Clickrepair with Izotope RX Advanced
Full Scan & Corrected LP Cover and LP Rip: Fran Solo
Password: WITHOUT PASSWORD

To Steve Hackett, I will following his career from his beginnings in 'Genesis' and his subsequent career as a soloist. Contrary to what one might think Hackett is one of those artists-geniuses who have managed to reinvent themselves, risking his reputation after proposing and out of inertia, in short a very complete artist and honest. In one example: this great and unknown album 'Bay of Kings', which boasts its potential as a learned composer, accompanied by various guitars out of the electric field: acoustic guitar, classical guitar and various string guitars nylon in stereo.
If I start analyzing his music, jump to hear the influences of various composers for stringed instruments of all time. From Baroque, Renaissance, Impressionist and contemporary (little reminiscent of Eric Satie and Joaquín Rodrigo).
Album is a must for any fan of the great Steve Hackett.
Spanish.
A Steve Hackett le vengo siguiendo su carrera desde sus inicios en 'Genesis' y su carrera posterior como solista. Contrariamente a lo que se pudiera pensar Hackett, es de esos artistas-genios que han sabido reinventarse, arriesgando su prestigio en pos de proponer y salir de la inercia; en resumen un artista muy completo y honesto. De muestra un botón: este magnífico y desconocido álbum 'Bay of Kings', en que hace gala de todo su potencial como compositor de música docta, acompañado de diversas guitarras fuera del ámbito eléctrico: guitarra acústica, guitarra clásica y diversas guitarras con cuerdas de nylon en estéreo.
Si me pongo a analizar su disco, saltan al oído las influencias de distintos compositores para instrumento de cuerda de todos los tiempos. Desde barrocos, renacentistas, impresionistas y contemporáneos (pequeñas reminiscencias de Eric Satie y Joaquín Rodrigo).
Es un álbum imperdible para cualquier fan del gran Steve Hackett.
Fran Solo, MMXIII


Vinyl / CUE/ FLAC/ High Definition Cover - 758Mb RAR & 193mb ZIP:
Uploaded 2496
Part 1
Part 2
Part 3

MirrorCreator (Rapidshare - Hotfile -Uploaded - Gamefront) 2496
Part 1
Part 2
Part 3

1644