Hank Snow - Christmas with Hank Snow (1967/2014) [Official Digital Download 24/96]

Posted By: Pisulik
Hank Snow - Christmas with Hank Snow (1967/2014) [Official Digital Download 24/96]

Hank Snow - Christmas with Hank Snow (1967/2014)
FLAC (tracks) 24-bit/96 kHz | Time - 32:22 minutes | 703 MB
Studio Master, Official Digital Download | Artwork: Front cover

Hank Snow pioneered the country concept LP as far back as the early 1950s. In 1967, he released Christmas With Hank Snow and the following year he released Tales Of The Yukon based on the popular poems of Robert Service that he had learned as a child in Canada. Now re-releases those two LPs separately, and the Christmas LP has been augmented with all of his commercial and non-commercial Christmas recordings… including ultra-rare early '50s Thesaurus transcriptions (studio quality records made for radio play only). What's more appropriate than Snow at Christmas?

Tracklist:

01. Little Stranger (In A Manger)
02. Christmas Roses
03. Silent Night
04. C-H-R-I-S-T-M-A-S
05. White Christmas
06. Blue Christmas
07. The Reindeer Boogie
08. Frosty The Snow Man
09. Christmas Wants
10. Rudolph The Red-Nosed Reindeer
11. God Is My Santa Claus
12. The Christmas Cannonball

foobar2000 1.3.7 / Dynamic Range Meter 1.1.1
log date: 2018-01-06 00:07:44

––––––––––––––––––––––––––––––––––––––––
Analyzed: Hank Snow / Christmas with Hank Snow
––––––––––––––––––––––––––––––––––––––––

DR Peak RMS Duration Track
––––––––––––––––––––––––––––––––––––––––
DR12 -0.65 dB -16.49 dB 2:42 01-Little Stranger (In a Manger)
DR12 -1.52 dB -16.01 dB 2:49 02-Christmas Roses
DR13 -1.66 dB -16.62 dB 3:41 03-Silent Night
DR12 -1.11 dB -15.84 dB 3:15 04-C-H-R-I-S-T-M-A-S
DR12 -1.25 dB -16.48 dB 3:05 05-White Christmas
DR11 -1.59 dB -16.55 dB 2:25 06-Blue Christmas
DR11 -0.82 dB -14.55 dB 2:10 07-The Reindeer Boogie
DR11 -0.97 dB -14.62 dB 2:07 08-Frosty the Snow Man
DR13 -2.09 dB -17.56 dB 2:48 09-Christmas Wants
DR11 -1.52 dB -15.18 dB 2:28 10-Rudolph the Red-Nosed Reindeer
DR11 -1.44 dB -15.13 dB 3:00 11-God Is My Santa Claus
DR11 -0.57 dB -13.91 dB 1:58 12-The Christmas Cannonball
––––––––––––––––––––––––––––––––––––––––

Number of tracks: 12
Official DR value: DR12

Samplerate: 96000 Hz
Channels: 2
Bits per sample: 24
Bitrate: 3100 kbps
Codec: FLAC
================================================================================


All thanks go to the original releaser