Harold Lopez-Nussa - Te Lo Dije (2020) [Official Digital Download 24/88]

Posted By: pyatak
Harold Lopez-Nussa - Te Lo Dije (2020) [Official Digital Download 24/88]

Harold Lopez-Nussa - Te Lo Dije (2020) [Official Digital Download 24/88]
FLAC (tracks) 24-bit/88.2 kHz | Front Cover | Time - 44:00 minutes | 869 MB
Latin Jazz | Label: Mack Avenue Records, Official Digital Download

Walk the streets of Havana on any day and you'll hear the soul of Cuba: music pouring from private homes and bustling restaurants, windows rattling with the parties thrown inside, nightclubs pulsing with throngs of people dancing.

On his vibrant and spirited third recording for Mack Avenue Records, Havana-based pianist and composer Harold López-Nussa sets out to capture that stirring sensation with an exhilarating marriage of jazz and Cuban pop music, defiantly standing up to the doubters who failed to share his radical vision.

Much like its near equivalent in English, "I told you so," the Spanish phrase "Te lo dije" can be deployed as a boast or a put-down - often both at once. López-Nussa throws down that gauntlet on 'Te Lo Dije'. The album features the pianist's core quartet of drummer Ruy Adrián López-Nussa, bassist Julio César González and trumpeter Mayquel González, bolstered by a number of special guests including Afro-Cuban funk superstar Cimafunk; French accordionist Vincent Peirani; famed Cuban reggaeton vocalist Randy Malcom; and vocalist Kelvis Ochoa.

The combustible blend of Afro-Cuban and modern jazz that has marked all of the pianist's acclaimed releases is enlivened by the sounds that thrill modern Cuban audiences: the Songo of the iconic band Los Van Van, the Mozambique of Pello el Afrokan, the reggaeton that has swept Latin America and the world since the late 90s. The results pulse with the lifeblood that runs through the streets of Havana.

TRACKLIST

1. Harold Lopez-Nussa - Habana Sin Sábanas
2. Harold Lopez-Nussa - Te Lo Dije
3. Harold Lopez-Nussa - The Windmills of Your Mind
4. Harold Lopez-Nussa - Lila's Mambo
5. Harold Lopez-Nussa - El Buey Cansao
6. Harold Lopez-Nussa - Timbeando
7. Harold Lopez-Nussa - Un Día de Noviembre
8. Harold Lopez-Nussa - Jocosa Guajira
9. Harold Lopez-Nussa - JazzTón
10. Harold Lopez-Nussa - Sobre el Atelier
11. Harold Lopez-Nussa - Van Van Meets New Orleans

foobar2000 1.3.16 / Dynamic Range Meter 1.1.1
log date: 2020-08-28 16:14:23

––––––––––––––––––––––––––––––––––––––––
Analyzed: Harold Lopez-Nussa / Te Lo Dije
––––––––––––––––––––––––––––––––––––––––

DR Peak RMS Duration Track
––––––––––––––––––––––––––––––––––––––––
DR9 0.00 dB -11.60 dB 3:34 01-Habana Sin Sábanas
DR8 -0.17 dB -10.24 dB 5:08 02-Te Lo Dije
DR8 0.00 dB -10.64 dB 5:17 03-The Windmills of Your Mind
DR8 -0.17 dB -10.01 dB 4:37 04-Lila's Mambo
DR9 0.00 dB -10.29 dB 4:06 05-El Buey Cansao
DR9 -0.17 dB -10.78 dB 4:16 06-Timbeando
DR9 -0.17 dB -12.27 dB 2:39 07-Un Día de Noviembre
DR8 -0.17 dB -10.39 dB 3:57 08-Jocosa Guajira
DR7 -0.16 dB -8.61 dB 3:19 09-JazzTón
DR9 -0.17 dB -11.44 dB 4:01 10-Sobre el Atelier
DR9 -0.17 dB -10.80 dB 3:08 11-Van Van Meets New Orleans
––––––––––––––––––––––––––––––––––––––––

Number of tracks: 11
Official DR value: DR8

Samplerate: 88200 Hz
Channels: 2
Bits per sample: 24
Bitrate: 2865 kbps
Codec: FLAC
================================================================================



Thanks to the Original customer.