Katherine Jenkins - Home Sweet Home (2014) [Official Digital Download]

Posted By: SERTiL
Katherine Jenkins - Home Sweet Home (2014) [Official Digital Download]

Katherine Jenkins - Home Sweet Home (2014)
FLAC (tracks) 24-bit/44.1 kHz | Time - 54:58 minutes |581 MB
Studio Master, Official Digital Download | Artwork: Front Cover

Katherine Jenkins, the nation’s sweetheart, returns to her classical roots celebrating the music that launched her international career.

Recorded with full orchestra and chorus in the famous Abbey Road Studios, Katherine has recorded new versions of some of the country's favourite music including Nimrod, How Great Thou Art and World In Union. The album also includes a duet with Alfie Boe on the Freddie Mercury track, Barcelona, an arrangement of Ludovico Einaudi's hit track, I Giorni, along with a special version of the Welsh National Anthem, Land of My Fathers.

Ten years ago, a star was born as Katherine was introduced to the world as the school teacher from Neath with a voice the nation fell in love with. Several million album sales later she has created the best album of her stellar career.

Tracklist:
01. Land of My Fathers
02. Ode to Joy
03. Sanctus (Vocal Version Of Elgar’s "Nimrod" From The Enigma Variations, Op. 36)
04. Barcelona
05. Dreaming of the Days (Vocal Version of Einaudi’s "I Giorni")
06. World In Union
07. Segreti (One Republic's "Secrets")
08. Remember (Based on Bach's Goldberg Variations)
09. We'll Gather Lilacs (From "Perchance to Dream")
10. How Great Thou Art
11. Home! Sweet Home!
12. Anthem (From "Chess")
13. We Are The Champions
14. Silent Night

foobar2000 1.3.7 / Dynamic Range Meter 1.1.1
log date: 2018-04-01 14:44:06

––––––––––––––––––––––––––––––––––––––––
Analyzed: Katherine Jenkins / Home Sweet Home
––––––––––––––––––––––––––––––––––––––––

DR Peak RMS Duration Track
––––––––––––––––––––––––––––––––––––––––
DR9 -0.75 dB -14.23 dB 3:22 01-Land of My Fathers
DR8 -0.40 dB -12.50 dB 3:43 02-Ode to Joy
DR10 -0.49 dB -14.91 dB 3:37 03-Sanctus (Vocal Version Of Elgar’s "Nimrod" From The Enigma Variations, Op. 36)
DR9 -0.30 dB -12.93 dB 4:27 04-Barcelona
DR9 -0.72 dB -14.50 dB 4:21 05-Dreaming of the Days (Vocal Version of Einaudi’s "I Giorni")
DR9 -0.33 dB -12.90 dB 4:11 06-World In Union
DR9 -0.84 dB -13.82 dB 4:27 07-Segreti (One Republic's "Secrets")
DR9 -0.44 dB -12.87 dB 4:18 08-Remember (Based on Bach's Goldberg Variations)
DR10 -0.99 dB -13.91 dB 3:26 09-We'll Gather Lilacs (From "Perchance to Dream")
DR10 -0.72 dB -14.67 dB 4:57 10-How Great Thou Art
DR10 -0.44 dB -15.16 dB 3:49 11-Home! Sweet Home!
DR9 -0.61 dB -13.78 dB 3:22 12-Anthem (From "Chess")
DR9 -0.37 dB -12.75 dB 3:30 13-We Are The Champions
DR10 -0.93 dB -16.54 dB 3:37 14-Silent Night
––––––––––––––––––––––––––––––––––––––––

Number of tracks: 14
Official DR value: DR9

Samplerate: 44100 Hz
Channels: 2
Bits per sample: 24
Bitrate: 1276 kbps
Codec: FLAC
================================================================================


Thanks to the Original customer.