Idris Muhammad - Black Rhythm Revolution! (Remastered) (1971/2020) [Official Digital Download 24/96]

Posted By: pyatak
Idris Muhammad - Black Rhythm Revolution! (Remastered) (1971/2020) [Official Digital Download 24/96]

Idris Muhammad - Black Rhythm Revolution! (Remastered) (1971/2020) [Official Digital Download 24/96]
FLAC (tracks) 24-bit/96 kHz | Front Cover | Time - 35:30 minutes | 751 MB
Jazz | Label: Craft Recordings, Official Digital Download

Black Rhythm Revolution! from 1972. an excellent drummer who has appeared in many types of settings, Idris Muhammad became a professional when he was 16. he played primarily soul and r&b during 1962-1964 and then spent 1965-1967 as a member of Lou Donaldson's band. he was the house drummer at prestige records (1970-1972), appearing on many albums as a sideman. of his later jazz associations, Muhammad played with johnny griffin (1978-1979), Pharaoh Sanders in the 1980s, George Coleman, and the Paris Reunion band (1986-1988). he has recorded everything from post-bop to dance music as a leader for such labels as prestige, kudu, fantasy, theresa, and lipstick.

"Black Rhythm Revolution is not a bad album at all; in fact, most of the tracks are good to great, with the lengthy bookends "By the Red Sea" and "Wander" both featuring memorable grooves and tight, compact solos. It's just considerably less intense than the title might lead one to believe."[5] Most critics who listened to the album said, although largely unknown, it was one of the better drummer albums of its time." (Stewart Mason, AMG)

TRACKLIST

1. Idris Muhammad - Express Yourself
2. Idris Muhammad - Soulful Drums
3. Idris Muhammad - Super Bad
4. Idris Muhammad - Wander
5. Idris Muhammad - By The Red Sea

[hide="Dynamic Range Report"foobar2000 1.6.2 / Dynamic Range Meter 1.1.1
log date: 2020-11-21 17:42:07

––––––––––––––––––––––––––––––––––––––––
Analyzed: Idris Muhammad / Black Rhythm Revolution! (Remastered)
––––––––––––––––––––––––––––––––––––––––

DR Peak RMS Duration Track
––––––––––––––––––––––––––––––––––––––––
DR12 -2.59 dB -17.16 dB 5:26 01-Express Yourself
DR15 -0.09 dB -17.53 dB 4:41 02-Soulful Drums
DR13 -0.84 dB -16.35 dB 5:30 03-Super Bad
DR13 -0.02 dB -15.93 dB 11:10 04-Wander
DR13 -2.01 dB -18.74 dB 8:54 05-By The Red Sea
––––––––––––––––––––––––––––––––––––––––

Number of tracks: 5
Official DR value: DR13

Samplerate: 96000 Hz
Channels: 2
Bits per sample: 24
Bitrate: 2953 kbps
Codec: FLAC
================================================================================

]

Thanks to the Original customer.