Les Arts Florissants & William Christie - In an Italian Garden Aria, Cantatas & Madrigals (Live) (2017) [24/96]

Posted By: SERTiL
Les Arts Florissants & William Christie - In an Italian Garden Aria, Cantatas & Madrigals (Live) (2017) [24/96]

Les Arts Florissants & William Christie - In an Italian Garden Aria, Cantatas & Madrigals (Live) (2017)
FLAC (tracks) 24-bit/96 kHz | Time - 66:31 minutes | 1.24 GB
Studio Master, Official Digital Download | Artwork: Digital booklet

This concert was recorded live at the Melbourne Recital Centre in Australia within the framework of Le Jardin des Voix: the Academy launched by Les Arts Florissants in 2002 as a showcase for young talent. William Christie and Paul Agnew, the co-directors of the Academy, are well known as fine teachers and indefatigable talent-spotters. Here they present six promising young singers, hitherto unknown to the general public, who were auditioned and recruited from almost 200 candidates.

"Love, hatred, jealousy, disenchantment and wrath are expressed by turns in 'Orlando furioso', probably the most influential text of that period. De Wert’s madrigal ‘Queste non son più lagrime’ borrows lines from Ariosto’s masterpiece, while Handel’s Orlando and Vivaldi’s Orlando furioso, excerpts from which are presented here, both take inspiration from it. If the first part of our recording describes the expressive powers of early Baroque, the second part is a light-hearted exploration of later works, with musicians themselves as the subject."

TRACKLIST

Adriano Banchieri (1568 - 1634)

1 Il Zabaione musicale: Già che ridotti siamo 01:51

Orazio Vecchi (1550 - 1605)

2 Le Veglie di Siena, overo i varii humori della musica moderna: Fate silentio 03:38

Alessandro Stradella (1639 - 1682)

3 Amanti, olà, olà, Accademia d'Amore: Sinfonia [Allegro] - Amanti, olà, olà - Hor non fia chi pavent - D'amore all'invito - Ritornello - Chi rese delirante 02:44

Georg Friedrich Händel (1685 - 1759)

4 Orlando, HWV 31: Ah stigie larve, ah scelerati spettri! 07:22

Giaches de Wert (1535 - 1596)

5 Quinto libro de madrigali: Queste non son più lagrime 03:44

Antonio Vivaldi (1678 - 1741)

6 Orlando furioso, RV Anh.84: Ah sleale, ah spergiura 05:45

Georg Friedrich Händel

7 Il Trionfo del Tempo e del Disinganno, HWV 46a: Lascia la spina, cogli la rosa 06:11

Antonio Vivaldi

8 Ottone in villa, RV 729: Gelosia, tu già rendi l’alma mia 02:56
9 La Virtù trionfante dell'amore, e dell'odio, overo Il Tigrane, RV 740: Care pupille 06:28

Alessandro Stradella

10 Amanti, olà, olà, Accademia d'Amore: Benché ascritto non sia d'Amore nell'Accademia - Si guardi dai dardi d'Amor (Disinganno) - Unito il Disinganno a la Ragione - Dotto Maestro è Amore 05:15

Domenico Cimarosa (1749 - 1801)

11 L'Impresario in angustie: Vé, che matta, maledetta! 04:13

Joseph Haydn (1732 - 1809)

12 La Canterina, Hob.XXVIII:2: Donne belle! - Che mai far deggio? - Io sposar l'empio tiranno - Che dici? - Sposo! 08:53

Sarro Domenico (1649 - 1744)

13 L'Impresario delle Canarie: Recitar è une miseria! - Aspetto un impresario forastiero - Nibbio mi chiamo - Ma vuol ch’io parta - Amor prepara 09:07

Joseph Haydn

14 La Canterina, Hob.XXVIII:2: Scellerata! mancatrice! traditrice! 03:36
15 Orlando paladino, Hob.XXVIII:11: Son confuso e stupefatto 02:47

PERSONNEL
Luciá Martín-Carton, soprano
Léa Desandre, mezzo
Carlo Vistoli, countertenor
Nicholas Scott, tenor
Renato Dolcini, baritone
John-Taylor Ward, bass
Les Arts Florissants
William Christie, direction

foobar2000 1.3.7 / Dynamic Range Meter 1.1.1
log date: 2017-09-26 21:31:17

––––––––––––––––––––––––––––––––––––––––
Analyzed: Les Arts Florissants, John Taylor Ward, Nicholas Scott, William Christie, Renato Dolcini, Lea Desandre, Lucía Martín-Cartón and Carlo Vistoli / In an Italian Garden: Aria, Cantatas & Madrigals (Live) (1)
Les Arts Florissants, Lea Desandre, Nicholas Scott, Lucía Martín-Cartón, William Christie and Renato Dolcini / In an Italian Garden: Aria, Cantatas & Madrigals (Live) (2)
Les Arts Florissants, Lea Desandre, William Christie and John Taylor Ward / In an Italian Garden: Aria, Cantatas & Madrigals (Live) (3)
Les Arts Florissants, Lea Desandre, William Christie, Renato Dolcini, Lucía Martín-Cartón, Carlo Vistoli, John Taylor Ward and Nicholas Scott / In an Italian Garden: Aria, Cantatas & Madrigals (Live) (4)
Les Arts Florissants, Lucía Martín-Cartón and William Christie / In an Italian Garden: Aria, Cantatas & Madrigals (Live) (5)
Les Arts Florissants, Lucía Martín-Cartón, Carlo Vistoli, John Taylor Ward, Nicholas Scott, Lea Desandre, William Christie and Renato Dolcini / In an Italian Garden: Aria, Cantatas & Madrigals (Live) (6)
Les Arts Florissants, Lucía Martín-Cartón, Carlo Vistoli, Lea Desandre, Nicholas Scott, William Christie, Renato Dolcini and John Taylor Ward / In an Italian Garden: Aria, Cantatas & Madrigals (Live) (7)
Les Arts Florissants, Nicholas Scott and William Christie / In an Italian Garden: Aria, Cantatas & Madrigals (Live) (8)
Les Arts Florissants, Nicholas Scott, John Taylor Ward, William Christie, Lucía Martín-Cartón, Carlo Vistoli, Renato Dolcini and Lea Desandre / In an Italian Garden: Aria, Cantatas & Madrigals (Live) (9)
Les Arts Florissants, William Christie and Carlo Vistoli / In an Italian Garden: Aria, Cantatas & Madrigals (Live) (10)
Les Arts Florissants, William Christie and Lea Desandre / In an Italian Garden: Aria, Cantatas & Madrigals (Live) (11)
Les Arts Florissants, William Christie and Renato Dolcini / In an Italian Garden: Aria, Cantatas & Madrigals (Live) (12)
Les Arts Florissants, William Christie, Lucía Martín-Cartón, Carlo Vistoli, Renato Dolcini, Lea Desandre, Nicholas Scott and John Taylor Ward / In an Italian Garden: Aria, Cantatas & Madrigals (Live) (13)
Les Arts Florissants, William Christie, Nicholas Scott, Lea Desandre and Lucía Martín-Cartón / In an Italian Garden: Aria, Cantatas & Madrigals (Live) (14)
Les Arts Florissants, William Christie, Renato Dolcini, Lea Desandre, Nicholas Scott and Lucía Martín-Cartón / In an Italian Garden: Aria, Cantatas & Madrigals (Live) (15)
––––––––––––––––––––––––––––––––––––––––

DR Peak RMS Duration Track
––––––––––––––––––––––––––––––––––––––––
DR13 -0.99 dB -18.06 dB 5:16 10-Amanti, olà, olà, Accademia d'Amore: Benché ascritto non sia d'Amore nell'Accademia-Si guardi dai dardi d'Amor (Disinganno)-Unito il Disinganno a la Ragione-Dotto Maestro è Amore
DR14 -1.00 dB -19.37 dB 4:13 11-L'Impresario in angustie: Vé, che matta, maledetta!
DR18 -0.99 dB -24.19 dB 9:08 13-L'Impresario delle Canarie: Recitar è une miseria!-Aspetto un impresario forastiero-Nibbio mi chiamo-Ma vuol ch'io parta-Amor prepara
DR12 -2.91 dB -20.03 dB 3:38 02-Le Veglie di Siena, overo i varii humori della musica moderna: Fate silentio
DR15 -1.00 dB -23.58 dB 6:12 07-Il Trionfo del Tempo e del Disinganno, HWV 46a: Lascia la spina, cogli la rosa
DR14 -3.11 dB -21.89 dB 3:45 05-Quinto libro de madrigali: Queste non son più lagrime
DR12 -0.93 dB -16.58 dB 2:48 15-Orlando Paladino, Hob.Xxviii:11: Son Confuso E Stupefatto
DR17 -2.53 dB -23.47 dB 6:29 09-La Virtù trionfante dell'amore, e dell'odio, overo Il Tigrane, RV 740: Care pupille
DR15 -3.11 dB -24.31 dB 1:52 01-Il Zabaione musicale: Già che ridotti siamo
DR15 -1.19 dB -20.72 dB 7:22 04-Orlando, HWV 31: Ah stigie larve, ah scelerati spettri!
DR13 -0.85 dB -17.89 dB 2:56 08-Ottone in villa, RV 729: Gelosia, tu già rendi l'alma mia
DR15 -0.98 dB -20.26 dB 5:45 06-Orlando furioso, RV Anh.84: Ah sleale, ah spergiura
DR13 -1.00 dB -19.88 dB 2:44 03-Amanti, olà, olà, Accademia d'Amore: Sinfonia [Allegro]-Amanti, olà, olà-Hor non fia chi pavent-D'amore all'invito-Ritornello-Chi rese delirante
DR15 -1.77 dB -20.93 dB 8:53 12-La Canterina, Hob.Xxviii:2: Donne Belle!-Che Mai Far Deggio?-Io Sposar L'Empio Tiranno-Che Dici?-Sposo!
DR11 -0.99 dB -16.60 dB 3:36 14-La Canterina, Hob.Xxviii:2: Scellerata! Mancatrice! Traditrice!
––––––––––––––––––––––––––––––––––––––––

Number of tracks: 15
Official DR value: DR14

Samplerate: 96000 Hz
Channels: 2
Bits per sample: 24
Bitrate: 2585 kbps
Codec: FLAC
================================================================================


Thanks to the Original customer.