Jacob Collier - Djesse Vol. 1 (2018) [Official Digital Download 24/96]

Posted By: SERTiL
Jacob Collier - Djesse Vol. 1 (2018) [Official Digital Download 24/96]

Jacob Collier - Djesse Vol. 1 (2018)
FLAC (tracks) 24-bit/96 kHz | Time - 53:16 minutes | 1.13 GB
Studio Master, Official Digital Download | Artwork: Front Cover

Multi-instrumentalist, singer, composer, arranger, producer and 2-time GRAMMY winner Jacob Collier is embarking on a journey that few musicians have attempted. The follow-up to his 2016 debut album is Djesse, a 40-song, 4-volume exploration of the mind of one of music’s finest young talents that traverses different musical worlds in astonishing ways. Djesse (Decca/Geffen/Universal Music Canada, the country’s leading music company) was written, produced and engineered by Collier, composed entirely during 2018, and features contributions from a global cast of his musical inspirations.

Volume 1 is ecstatic and whimsical, a dazzling collaboration with storied Dutch ensemble Metropole Orkest under the direction of Jules Buckley. Collier began this project in earnest on New Year’s Day, 2018. He awoke and Djesse began with Collier capturing the feeling of dawn and a new year with the limitless possibilities of orchestral music. It features Voces8 (on the opening track, “Home Is”), Take 6, Laura Mvula and the Moroccan gnawa musician Hamid El Kasri.

“Everlasting Motion” features Hamid El Kasri, a master of gnawa: an ancient form of Moroccan street music with a hypnotic rhythm. After learning about El Kasri, and a significant search for his contact information, Collier emailed him. Nearly three months later he received a response, then booked a flight to Morocco to meet and record with him. Collier’s curiosity and openness to seek out these musical relationships and enable them to seep into his singular vision is central to the project.

Djesse is a celebration of the imagination, a lushly vivid snapshot of Collier’s musical mind as he’s experienced the world in 2018. This project brings Collier’s bedroom, where he’s lived since age one and created and recorded most of his music, to the globe. In making it, he recorded in his bedroom as well as in NYC, Los Angeles, Nashville, Abbey Road, Holland, Morocco and Japan. Pre-order Volume 1 HERE.

As the volumes are revealed, different textures, themes and sounds will be explored. Collier imagined Djesse as a grand journey through space and time, and each volume follows along this path. In addition, across the quartiles nearly two-dozen collaborators will be featured, from pop stars and folk songwriters to guitar wizards and soul singers. Collier stands at the centre of it all, putting himself in conversation with the musical world at large.

Tracklist:
01. Home Is (05:45)
02. Overture (02:54)
03. With The Love In My Heart (06:48)
04. Ocean Wide, Canyon Deep (feat. Laura Mvula) (05:19)
05. Djesse (04:36)
06. Everlasting Motion (feat. Hamid El Kasri) (06:33)
07. Every Little Thing She Does Is Magic (04:38)
08. Once You (feat. Suzie Collier) (09:24)
09. All Night Long (feat. Take 6) (07:19)

Personnel:
Jacob Collier, vocals
Metropole Orchestra
Metropole Orkest
Jules Buckley, conductor

foobar2000 1.3.7 / Dynamic Range Meter 1.1.1
log date: 2018-12-07 05:00:17

––––––––––––––––––––––––––––––––––––––––
Analyzed: Jacob Collier / Djesse (Vol. 1)
––––––––––––––––––––––––––––––––––––––––

DR Peak RMS Duration Track
––––––––––––––––––––––––––––––––––––––––
DR10 -0.20 dB -15.43 dB 5:45 01-Home Is
DR10 -0.20 dB -14.70 dB 2:54 02-Overture
DR10 -0.20 dB -12.99 dB 6:49 03-With The Love In My Heart
DR10 -0.20 dB -14.43 dB 5:19 04-Ocean Wide, Canyon Deep (feat. Laura Mvula)
DR11 -0.20 dB -13.50 dB 4:36 05-Djesse
DR9 -0.20 dB -11.82 dB 6:34 06-Everlasting Motion (feat. Hamid El Kasri)
DR9 -0.20 dB -12.30 dB 4:39 07-Every Little Thing She Does Is Magic
DR10 -0.20 dB -15.26 dB 9:24 08-Once You (feat. Suzie Collier)
DR10 -0.20 dB -12.71 dB 7:19 09-All Night Long (feat. Take 6)
––––––––––––––––––––––––––––––––––––––––

Number of tracks: 9
Official DR value: DR10

Samplerate: 96000 Hz
Channels: 2
Bits per sample: 24
Bitrate: 3198 kbps
Codec: FLAC
================================================================================


Thanks to the Original customer.