Jan A. P. Kaczmarek - Paul, Apostle of Christ (Original Motion Picture Soundtrack) (2018) [Official Digital Download]

Posted By: Pisulik
Jan A. P. Kaczmarek - Paul, Apostle of Christ (Original Motion Picture Soundtrack) (2018) [Official Digital Download]

Jan A. P. Kaczmarek - Paul, Apostle of Christ (Original Motion Picture Soundtrack) (2018)
FLAC (tracks) 24-bit/44.1 kHz | Time - 44:46 minutes | 429 MB
Studio Master, Official Digital Download | Artwork: Front cover

‘Paul, Apostle of Christ’, the upcoming American biblical drama film, is written and directed by Andrew Hyatt with music by Jan A. P. Kaczmarek. Kaczmarek is a composer with a tremendous international reputation that continues to flourish. As a successful recording artist and touring musician, Kaczmarek turned to composing film scores as his primary occupation. In February 2005, he won his first Oscar for Best Original Score on Marc Forster’s highly acclaimed film, ‘Finding Neverland’. Kaczmarek also won The National Review Board’s award for Best Score of the Year, and was nominated for both a Golden Globe and BAFTA’s Anthony Asquith Award for Achievement in Film Music.

Tracklist:

01. Love is the Only Way
02. Nero's Rome
03. Luke Sneaks Into the City
04. The Community
05. Mamertine Prison
06. An Arrangement
07. Jerusalem Violence
08. Thorn in the Flesh
09. The Hope
10. A Blind Love
11. Road to Damascus
12. Saul's Transformation
13. Separate Paths
14. Storming the Prison
15. Heavenly Vision
16. Mauritius Sacrifices to the Gods
17. Luke Heals Celia
18. Write it Down
19. Exodus

foobar2000 1.3.7 / Dynamic Range Meter 1.1.1
log date: 2018-03-25 09:16:07

––––––––––––––––––––––––––––––––––––––––
Analyzed: Jan A. P. Kaczmarek / Paul, Apostle of Christ (Original Motion Picture Soundtrack)
––––––––––––––––––––––––––––––––––––––––

DR Peak RMS Duration Track
––––––––––––––––––––––––––––––––––––––––
DR10 -0.96 dB -15.07 dB 3:20 01-Love is the Only Way
DR5 -3.44 dB -10.76 dB 2:35 02-Nero's Rome
DR7 -2.60 dB -13.00 dB 1:29 03-Luke Sneaks Into the City
DR9 -1.67 dB -13.69 dB 1:06 04-The Community
DR9 -1.75 dB -13.84 dB 0:57 05-Mamertine Prison
DR9 -1.40 dB -11.92 dB 2:06 06-An Arrangement
DR11 -1.82 dB -16.09 dB 4:31 07-Jerusalem Violence
DR8 -2.16 dB -14.14 dB 2:20 08-Thorn in the Flesh
DR9 -0.98 dB -14.15 dB 3:44 09-The Hope
DR9 -2.34 dB -15.57 dB 1:03 10-A Blind Love
DR9 -2.09 dB -14.74 dB 1:34 11-Road to Damascus
DR10 -0.96 dB -14.87 dB 2:09 12-Saul's Transformation
DR8 -1.00 dB -16.00 dB 1:36 13-Separate Paths
DR8 -1.10 dB -12.79 dB 3:02 14-Storming the Prison
DR8 -0.97 dB -13.76 dB 1:31 15-Heavenly Vision
DR10 -1.69 dB -16.88 dB 2:05 16-Mauritius Sacrifices to the Gods
DR9 -1.60 dB -13.89 dB 3:32 17-Luke Heals Celia
DR8 -3.37 dB -17.47 dB 0:55 18-Write it Down
DR9 -1.00 dB -13.86 dB 5:27 19-Exodus
––––––––––––––––––––––––––––––––––––––––

Number of tracks: 19
Official DR value: DR9

Samplerate: 44100 Hz
Channels: 2
Bits per sample: 24
Bitrate: 1337 kbps
Codec: FLAC
================================================================================


All thanks go to the original releaser