Janine Jansen - Prokofiev (2012/2015) [TR24][OF]

Posted By: SERTiL
Janine Jansen - Prokofiev (2012/2015) [TR24][OF]

Janine Jansen - Prokofiev
Classical | FLAC (tracks) 24-bit/96 kHz | 76:53 min | 1.34 GB | Digital booklet
Label: Decca | Tracks: 13 | Rls.date: 2012/2015

Dutch violinist Janine Jansen has made some unorthodox recordings (check out her Vivaldi Four Seasons sometime), but here, in a work in which proportion and technique are exquisitely balanced, she plays it straight with impressive results. Prokofiev's Violin Concerto No. 2, composed in 1935 just before his return to the Soviet Union from France, has always been a popular repertory item, but Jansen's reading, ably accompanied by the London Philharmonic Orchestra under Vladimir Jurowski, has a pearly quality throughout, a kind of bright ease, that comes only at the highest levels of technique. Also notable is the combination of the concerto, not with the usual and unnecessary second repertory violin-and-orchestra piece, but with violin works of Prokofiev from roughly the same period. The program as a whole gives not only an added dose of the composer's unusually idiomatic violin writing, but also a slice of his life: the other two pieces are later than the concerto and represent further stages of his compositional life. The rarely heard Sonata for two violins in C major, Op. 56, is a spare and very attractive work that bears some relationship to the genesis of the concerto. The Violin Sonata No. 1 in F minor, Op. 80/1, on the other hand, is a Prokofiev work of the late 1930s, after the grim ramifications of Stalinism for creative artists (not to mention just about everybody else) had begun to sink in; it's one of the few Prokofiev works with an emotional content similar to the sense of menace in much of Shostakovich's output. Jansen gets this tone, always a tricky proposition for a non-Russian, and her playing throughout is both perfect and vibrant. If there's a complaint it's with the sound; the duo sonata is closely and harshly miked, capturing the experience of sitting on a piano bench next to the performers rather than that of hearing them in an acoustically well-planned hall. The concerto and the violin-and-piano sonata are better, but no great shakes. Review by James Manheim

TRACKLIST
01. Violin Concerto No.2 In G Minor, Op.63 - 1. Allegro Moderato
02. Violin Concerto No.2 In G Minor, Op.63 - 2. Andante Assai
03. Violin Concerto No.2 In G Minor, Op.63 - 3. Allegro, Ben Marcato
04. Sonata In C Major For 2 Violins, Op.56 - 1. Andante Cantabile
05. Sonata In C Major For 2 Violins, Op.56 - 2. Allegro
06. Sonata In C Major For 2 Violins, Op.56 - 3. Commodo (Quasi Allegretto)
07. Sonata In C Major For 2 Violins, Op.56 - 4. Allegro Con Brio
08. Sonata For Violin And Piano No.1 In F Minor, Op.80 - 1. Andante Assai
09. Sonata For Violin And Piano No.1 In F Minor, Op.80 - 2. Allegro Brusco
10. Sonata For Violin And Piano No.1 In F Minor, Op.80 - 3. Andante
11. Sonata For Violin And Piano No.1 In F Minor, Op.80 - 4. Allegrissimo
12. The Love For Three Oranges. Op.33 - March
13. 5 Melodies, Op.35bis - 1. Andante

foobar2000 1.3.7 / Замер динамического диапазона (DR) 1.1.1
Дата отчёта: 2017-01-10 23:04:04

––––––––––––––––––––––––––––––––––––––––
Анализ: Vladimir Jurowski, London Philharmonic Orchestra, Itamar Golan, Boris Brovtsyn, Janine Jansen / Janine Jansen Plays Prokofiev
––––––––––––––––––––––––––––––––––––––––

DR Пики RMS Продолжительность трека
––––––––––––––––––––––––––––––––––––––––
DR15 -0.14 дБ -19.86 дБ 10:51 01-Violin Concerto No.2 In G Minor, Op.63 - 1. Allegro Moderato
DR16 -1.05 дБ -21.51 дБ 9:47 02-Violin Concerto No.2 In G Minor, Op.63 - 2. Andante Assai
DR15 -0.11 дБ -18.23 дБ 6:24 03-Violin Concerto No.2 In G Minor, Op.63 - 3. Allegro, Ben Marcato
DR14 -4.73 дБ -25.18 дБ 2:51 04-Sonata In C Major For 2 Violins, Op.56 - 1. Andante Cantabile
DR15 -0.07 дБ -19.29 дБ 3:16 05-Sonata In C Major For 2 Violins, Op.56 - 2. Allegro
DR15 -6.46 дБ -28.30 дБ 4:29 06-Sonata In C Major For 2 Violins, Op.56 - 3. Commodo (Quasi Allegretto)
DR14 -0.03 дБ -19.84 дБ 5:53 07-Sonata In C Major For 2 Violins, Op.56 - 4. Allegro Con Brio
DR15 -4.38 дБ -26.52 дБ 7:20 08-Sonata For Violin And Piano No.1 In F Minor, Op.80 - 1. Andante Assai
DR14 -0.07 дБ -18.22 дБ 7:03 09-Sonata For Violin And Piano No.1 In F Minor, Op.80 - 2. Allegro Brusco
DR18 -5.34 дБ -30.14 дБ 7:41 10-Sonata For Violin And Piano No.1 In F Minor, Op.80 - 3. Andante
DR14 -0.14 дБ -19.69 дБ 7:22 11-Sonata For Violin And Piano No.1 In F Minor, Op.80 - 4. Allegrissimo
DR13 -0.10 дБ -18.65 дБ 1:46 12-The Love For Three Oranges. Op.33 - March
DR14 -2.00 дБ -24.05 дБ 2:19 13-5 Melodies, Op.35bis - 1. Andante
––––––––––––––––––––––––––––––––––––––––

Количество треков: 13
Реальные значения DR: DR15

Частота: 96000 Гц
Каналов: 2
Разрядность: 24
Битрейт: 2385 кбит/с
Кодек: FLAC
================================================================================


Thanks to the Original customer.