Jeff Healey - Heal My Soul (Deluxe Edition) (2016/2020) [Official Digital Download 24/96]

Posted By: pyatak
Jeff Healey - Heal My Soul (Deluxe Edition) (2016/2020) [Official Digital Download 24/96]

Jeff Healey - Heal My Soul (Deluxe Edition) (2016/2020) [Official Digital Download 24/96]
FLAC (tracks) 24-bit/96 kHz | Front Cover | Time - 01:09:32 minutes | 1,55 GB
Blues Rock | Label: Eagle Rock Entertainment Ltd., Official Digital Download

This special double edition of the critically acclaimed "Heal My Soul" features the album packaged with its companion album, "Holding On", for the first time. "Heal My Soul" is composed of 12 songs recorded during a 3 year period (1996-98) of intense creativity. "Holding On" features five more studio tracks from this time period, along with a live performance from Rockefeller Music Hall.

Known for his unconventional way of playing guitar in a lap-steel fashion, fretting with all five fingers, Jeff Healey (who was blind since childhood due to a rare form of eye cancer) solidified a legacy as a musician’s musician. His style of blues-rock earned the Canadian artist fans worldwide, before his untimely passing in 2008. This deluxe edition of Heal My Soul is a collection of material from one of Healey’s most creative periods, for both veteran and new fans.

TRACKLIST

1. Jeff Healey - Daze Of The Night
2. Jeff Healey - Moodswing
3. Jeff Healey - Baby Blue
4. Jeff Healey - I Misunderstood
5. Jeff Healey - Please
6. Jeff Healey - Love In Her Eyes
7. Jeff Healey - Temptation
8. Jeff Healey - Kiss The Ground You Walk On
9. Jeff Healey - All The Saints
10. Jeff Healey - Put The Shoe On The Other Foot
11. Jeff Healey - Under A Stone
12. Jeff Healey - It's The Last Time
13. Jeff Healey - Love Takes Time
14. Jeff Healey - Every Other Guy
15. Jeff Healey - Dancing With The Monsters
16. Jeff Healey - All That I Believe
17. Jeff Healey - CNIBlues

foobar2000 1.3.16 / Dynamic Range Meter 1.1.1
log date: 2020-05-22 23:29:37

––––––––––––––––––––––––––––––––––––––––
Analyzed: Jeff Healey / Heal My Soul (Deluxe Edition)
––––––––––––––––––––––––––––––––––––––––

DR Peak RMS Duration Track
––––––––––––––––––––––––––––––––––––––––
DR13 0.00 dB -13.81 dB 4:00 01-Daze Of The Night
DR13 0.00 dB -14.17 dB 4:08 02-Moodswing
DR11 -0.94 dB -14.18 dB 3:54 03-Baby Blue
DR13 0.00 dB -14.03 dB 4:37 04-I Misunderstood
DR11 -0.16 dB -13.49 dB 3:43 05-Please
DR12 0.00 dB -13.15 dB 4:16 06-Love In Her Eyes
DR10 -1.35 dB -12.92 dB 5:00 07-Temptation
DR12 0.00 dB -13.68 dB 4:19 08-Kiss The Ground You Walk On
DR14 0.00 dB -16.10 dB 5:00 09-All The Saints
DR12 0.00 dB -13.91 dB 4:18 10-Put The Shoe On The Other Foot
DR13 0.00 dB -14.85 dB 4:01 11-Under A Stone
DR12 0.00 dB -13.88 dB 4:35 12-It's The Last Time
DR13 0.00 dB -13.74 dB 4:45 13-Love Takes Time
DR14 0.00 dB -15.10 dB 3:13 14-Every Other Guy
DR13 0.00 dB -13.97 dB 5:10 15-Dancing With The Monsters
DR12 0.00 dB -13.44 dB 3:29 16-All That I Believe
DR11 0.00 dB -12.09 dB 1:06 17-CNIBlues
––––––––––––––––––––––––––––––––––––––––

Number of tracks: 17
Official DR value: DR12

Samplerate: 96000 Hz
Channels: 2
Bits per sample: 24
Bitrate: 2496 kbps
Codec: FLAC
================================================================================



Thanks to the Original customer.