Jeff Wayne's Musical Version of The War of The Worlds - The New Generation (2012/2020) [Official Digital Download 24/96]

Posted By: pyatak
Jeff Wayne's Musical Version of The War of The Worlds - The New Generation  (2012/2020) [Official Digital Download 24/96]

Jeff Wayne's Musical Version of The War of The Worlds - The New Generation (2012/2020) [Official Digital Download 24/96]
FLAC (tracks) 24-bit/96 kHz | Front Cover | Time - 01:43:16 minutes | 2,19 GB
Rock | Label: Sony Music UK, Official Digital Download

Retelling the story of 'The War of the Worlds', this concept album follows on from Jeff Wayne's 1978 classic. Recreating the score for the next generation, the album features the vocals of Liam Neeson, Gary Barlow, Maverick Sabre and Joss Stone.

Jeff Wayne's Musical Version of The War of the Worlds – The New Generation is a 2012 concept album by Jeff Wayne and is a re-imagining of his 1978 concept album, retelling the story of the 1898 novel The War of the Worlds by H. G. Wells. As previously, the music format is predominantly progressive rock and string orchestra, but with synthesizers playing a more prominent role. The music is intermixed with re-voiced narration and leitmotifs to carry the story forward via rhyming melodic lyrics that express the feelings of the various characters. Due to the consistent popularity of the original album, Wayne decided to return to his score and re-create it for a new generation of audiences, as well as re-launch a live tour throughout the United Kingdom and Europe.

TRACKLIST

1. Jeff Wayne - The Eve of the War
2. Jeff Wayne - Horsell Common and the Heat Ray
3. Jeff Wayne - The Artilleryman and the Fighting Machine
4. Jeff Wayne - Forever Autumn
5. Jeff Wayne - Thunder Child
6. Jeff Wayne - The Red Weed (Part 1)
7. Jeff Wayne - The Spirit of Man
8. Jeff Wayne - The Red Weed (Part 2)
9. Jeff Wayne - The Artilleryman Returns
10. Jeff Wayne - Brave New World
11. Jeff Wayne - Dead London (Part 1)
12. Jeff Wayne - Dead London (Part 2)
13. Jeff Wayne - Epilogue, Pt. 1
14. Jeff Wayne - Epilogue, Pt. 2 (NASA)

foobar2000 1.3.16 / Dynamic Range Meter 1.1.1
log date: 2020-05-29 15:18:30

––––––––––––––––––––––––––––––––––––––––
Analyzed: Jeff Wayne / Jeff Wayne's Musical Version of The War of The Worlds - The New Generation
––––––––––––––––––––––––––––––––––––––––

DR Peak RMS Duration Track
––––––––––––––––––––––––––––––––––––––––
DR6 -0.40 dB -9.20 dB 10:14 01-The Eve of the War
DR7 -0.40 dB -9.24 dB 12:15 02-Horsell Common and the Heat Ray
DR7 -0.40 dB -9.58 dB 12:05 03-The Artilleryman and the Fighting Machine
DR6 0.00 dB -9.30 dB 7:54 04-Forever Autumn
DR5 -0.40 dB -8.03 dB 6:14 05-Thunder Child
DR8 -0.40 dB -12.51 dB 6:58 06-The Red Weed (Part 1)
DR6 -0.40 dB -8.15 dB 12:07 07-The Spirit of Man
DR6 -0.40 dB -8.44 dB 5:20 08-The Red Weed (Part 2)
DR10 -0.40 dB -13.46 dB 3:21 09-The Artilleryman Returns
DR6 -0.40 dB -8.79 dB 12:14 10-Brave New World
DR8 -0.40 dB -11.28 dB 5:27 11-Dead London (Part 1)
DR5 -0.40 dB -7.38 dB 3:48 12-Dead London (Part 2)
DR7 -0.40 dB -9.29 dB 3:22 13-Epilogue, Pt. 1
DR7 -0.40 dB -13.13 dB 1:57 14-Epilogue, Pt. 2 (NASA)
––––––––––––––––––––––––––––––––––––––––

Number of tracks: 14
Official DR value: DR7

Samplerate: 96000 Hz
Channels: 2
Bits per sample: 24
Bitrate: 2908 kbps
Codec: FLAC
================================================================================



Thanks to the Original customer.