Subcategories

Jefferson Airplane – Surrealistic Pillow (1967/2016) [MFSL SACD ISO]

Posted By: tiburon
Jefferson Airplane – Surrealistic Pillow (1967/2016) [MFSL SACD ISO]

Jefferson Airplane – Surrealistic Pillow (1967/2016) [MFSL SACD ISO]
PS3 Rip | SACD ISO | DST64 2.0>1-bit/2.8224 MHz | Full Scans 600dpi | 1.4GB + 5% Recovery

Surrealistic Pillow is the second album by American rock band Jefferson Airplane, released on February 1, 1967, by RCA Victor (LSP-3766 [stereo] and LPM-3766 [mono]). It is the first album by the band with vocalist Grace Slick and drummer Spencer Dryden. The album peaked at number three on the Billboard album chart and has been certified a gold album by the RIAA.
Track List
01. She Has Funny Cars 03:06
02. Somebody to Love 02:58
03. My Best Friend 03:04
04. Today 03:01
05. Comin’ Back to Me 05:29
06. 3/5 of a Mile in 10 Seconds 03:45
07. D.C.B.A. – 25 02:38
08. How Do You Feel 03:33
09. Embryonic Journey 01:54
10. White Rabbit 02:33
11. Plastic Fantastic Lover 02:38

Produced by Rick Jarrard


16908391[0x1020067]: SACD-Ripper Version 0.21
16908391[0x1020067]: disc inserted..
16908391[0x1020067]: config: 00 00 00 0c 00 00 00 10 ff 41 01 04 00 00 00 00
16908391[0x1020067]: config: 00 00 00 00 00 00 00 00 00 00 00 00 00 00 00 00
16908391[0x1020067]: config: 00 00 00 00 00 00 00 00 00 00 00 00 00 00 00 00
16908391[0x1020067]: config: 00 00 00 00 00 00 00 00 00 00 00 00 00 00 00 00
16908391[0x1020067]: device_info: 75 6e 6e 61 6d 65 5c d0 80 00 00 00 00 53 a0 00
16908391[0x1020067]: device_info: 80 00 00 00 10 12 de 70 80 00 00 00 00 5e 28 00
16908391[0x1020067]: device_info: 00 00 00 00 00 00 00 00 00 00 00 00 00 0b 21 10
16908391[0x1020067]: device_info: 00 00 08 00 00 00 00 01 00 01 01 00 00 00 00 01
16908391[0x1020067]: Album Title: Surrealistic Pillow
16908391[0x1020067]: Album Artist: 2016
16908391[0x1020067]: Disc Version: 01.20
16908391[0x1020067]: config: 00 00 00 0c 00 00 00 10 ff 41 01 04 00 00 00 00
16908391[0x1020067]: config: 00 00 00 00 00 00 00 00 00 00 00 00 00 00 00 00
16908391[0x1020067]: config: 00 00 00 00 00 00 00 00 00 00 00 00 00 00 00 00
16908391[0x1020067]: config: 00 00 00 00 00 00 00 00 00 00 00 00 00 00 00 00
16908391[0x1020067]: device_info: 75 6e 6e 61 6d 65 5c d0 80 00 00 00 00 53 a0 00
16908391[0x1020067]: device_info: 80 00 00 00 10 12 de 70 80 00 00 00 00 5e 28 00
16908391[0x1020067]: device_info: 00 00 00 00 00 00 00 00 00 00 00 00 00 0b 21 10
16908391[0x1020067]: device_info: 00 00 08 00 00 00 00 01 00 01 01 00 00 00 00 01
16908391[0x1020067]: succeeded. raw_spu number is 0
16908391[0x1020067]: succeeded. entry d0
16908391[0x1020067]: Establishing the interrupt tag on the interrupt PPU thread.
16908391[0x1020067]: ioctl_report_key1[45042c01] 0
16908391[0x1020067]: sac_exec_generate_key 0 c9 0
16908391[0x1020067]: ioctl_send_key[2] c9 0
16908391[0x1020067]: ioctl_report_key[2] c8 0
16908391[0x1020067]: sac_exec_validate_key_1[0]
16908391[0x1020067]: sac_exec_generate_key_2[ae] 0
16908391[0x1020067]: ioctl_send_key[3] ae 0
16908391[0x1020067]: ioctl_report_key[3] b0 0
16908391[0x1020067]: sac_exec_validate_key_2[0]
16908391[0x1020067]: ioctl_report_key[4] 30 0
16908391[0x1020067]: sac_exec_validate_key_3[0]
16908391[0x1020067]: ioctl_report_finish [0xff] 0
16908391[0x1020067]: Queuing raw: /dev_usb000/2016 - Surrealistic Pillow.iso, start_lsn: 0, length_lsn: 729360
16908391[0x1020067]: disc ejected..
16908391[0x1020067]: config: 00 00 00 0c 00 00 00 00 ff 41 00 04 00 00 00 00
16908391[0x1020067]: config: 00 00 00 00 00 00 00 00 00 00 00 00 00 00 00 00
16908391[0x1020067]: config: 00 00 00 00 00 00 00 00 00 00 00 00 00 00 00 00
16908391[0x1020067]: config: 00 00 00 00 00 00 00 00 00 00 00 00 00 00 00 00
16908391[0x1020067]: device_info: 75 6e 6e 61 6d 65 5c d0 80 00 00 00 00 53 a0 00
16908391[0x1020067]: device_info: 80 00 00 00 10 12 de 70 80 00 00 00 00 5e 28 00
16908391[0x1020067]: device_info: 00 00 00 00 00 00 00 00 00 00 00 00 00 0b 21 10
16908391[0x1020067]: device_info: 00 00 08 00 00 00 00 01 00 01 01 00 00 00 00 01


––––––––––––––––––––––––––––––––––––––––
Analyzed: Jefferson Airplane / Surrealistic Pillow
––––––––––––––––––––––––––––––––––––––––

DR Peak RMS Duration Track
––––––––––––––––––––––––––––––––––––––––
DR9 -6.29 dB -17.41 dB 3:05 01-She Has Funny Cars
DR9 -6.55 dB -17.48 dB 2:56 02-Somebody to Love
DR9 -6.44 dB -18.33 dB 3:02 03-My Best Friend
DR9 -7.24 dB -20.14 dB 2:59 04-Today
DR10 -9.23 dB -22.63 dB 5:26 05-Comin' Back to Me
DR9 -7.57 dB -18.19 dB 3:44 06-3/5 of a Mile in 10 Seconds
DR9 -6.80 dB -17.34 dB 2:36 07-D.C.B.A. - 25
DR9 -6.48 dB -18.34 dB 3:31 08-How Do You Feel
DR13 -8.60 dB -24.18 dB 1:53 09-Embryonic Journey
DR9 -6.54 dB -19.50 dB 2:32 10-White Rabbit
DR10 -6.34 dB -18.25 dB 2:38 11-Plastic Fantastic Lover
––––––––––––––––––––––––––––––––––––––––

Number of tracks: 11
Official DR value: DR10

Samplerate: 2822400 Hz / PCM Samplerate: 88200 Hz
Channels: 2
Bits per sample: 1
Bitrate: 5645 kbps
Codec: DSD64
================================================================================


Thanks to the original ripper