Jethro Tull - A Passion Play (Steven Wilson Mix) (1973/2000/2014) [Official Digital Download 24/96]

Posted By: pyatak
Jethro Tull - A Passion Play (Steven Wilson Mix) (1973/2000/2014) [Official Digital Download 24/96]

Jethro Tull - A Passion Play (Steven Wilson Mix) (1973/2000/2014) [Official Digital Download 24/96]
FLAC (tracks) 24-bit/96 kHz | Front Cover | Time - 45:25 minutes | 909 MB
Progressive Rock | Label: Parlophone UK, Official Digital Download

A Passion Play is the sixth studio album by British progressive rock band Jethro Tull, released in July 1973 in both the UK and US. Following in the same style as the band's previous album Thick as a Brick (1972), A Passion Play is a concept album comprising individual songs arranged into a single continuous piece of music (which was split into two parts across the original vinyl release's two sides). The album's concept follows the spiritual journey of a recently deceased man (Ronnie Pilgrim) in the afterlife, exploring themes of morality, religion and good and evil. The album's accompanying tour was considered the high water mark of Jethro Tull's elaborate stage productions, involving a full performance of the album accompanied by physical props, sketches and projected video.

A Passion Play was negatively received by critics upon its initial release, however the album was a commercial success, becoming Jethro Tull's second number one album in the United States. Today the album is often regarded as a fan favorite among Jethro Tull fans, and has been listed by contemporary critics as one of the greatest progressive rock albums of all time

TRACKLIST

1. Jethro Tull - Lifebeats / Prelude (Stereo Mix)
2. Jethro Tull - The Silver Cord (Stereo Mix)
3. Jethro Tull - Re-Assuring Tune (Stereo Mix)
4. Jethro Tull - Memory Bank (Stereo Mix)
5. Jethro Tull - Best Friends (Stereo Mix)
6. Jethro Tull - Critique Oblique (Stereo Mix)
7. Jethro Tull - Forest Dance #1 (Stereo Mix)
8. Jethro Tull - The Story of the Hare Who Lost His Spectacles (Stereo Mix)
9. Jethro Tull - Forest Dance #2 (Stereo Mix)
10. Jethro Tull - The Foot of Our Stairs (Stereo Mix)
11. Jethro Tull - Overseer Overture (Stereo Mix)
12. Jethro Tull - Flight from Lucifer (Stereo Mix)
13. Jethro Tull - 10.08 to Paddington (Stereo Mix)
14. Jethro Tull - Magus Perde (Stereo Mix)
15. Jethro Tull - Epilogue (Stereo Mix)

foobar2000 1.6.2 / Dynamic Range Meter 1.1.1
log date: 2021-05-26 15:51:52

––––––––––––––––––––––––––––––––––––––––
Analyzed: Jethro Tull / A Passion Play (Steven Wilson Mix)
––––––––––––––––––––––––––––––––––––––––

DR Peak RMS Duration Track
––––––––––––––––––––––––––––––––––––––––
DR13 -0.10 dB -16.42 dB 3:24 01-Lifebeats / Prelude (Stereo Mix)
DR13 -1.38 dB -19.02 dB 4:28 02-The Silver Cord (Stereo Mix)
DR11 -0.73 dB -19.50 dB 1:11 03-Re-Assuring Tune (Stereo Mix)
DR13 -0.10 dB -14.85 dB 4:20 04-Memory Bank (Stereo Mix)
DR12 -0.10 dB -13.63 dB 1:56 05-Best Friends (Stereo Mix)
DR13 -0.10 dB -13.99 dB 4:35 06-Critique Oblique (Stereo Mix)
DR13 -0.10 dB -21.55 dB 1:33 07-Forest Dance #1 (Stereo Mix)
DR16 -0.10 dB -20.68 dB 4:09 08-The Story of the Hare Who Lost His Spectacles (Stereo Mix)
DR13 -0.72 dB -18.78 dB 1:12 09-Forest Dance #2 (Stereo Mix)
DR13 -0.10 dB -16.00 dB 5:08 10-The Foot of Our Stairs (Stereo Mix)
DR12 -0.10 dB -14.05 dB 3:58 11-Overseer Overture (Stereo Mix)
DR13 -0.10 dB -15.53 dB 3:56 12-Flight from Lucifer (Stereo Mix)
DR12 -6.79 dB -21.43 dB 1:04 13-10.08 to Paddington (Stereo Mix)
DR12 -0.10 dB -13.47 dB 3:53 14-Magus Perde (Stereo Mix)
DR15 -0.92 dB -22.60 dB 0:45 15-Epilogue (Stereo Mix)
––––––––––––––––––––––––––––––––––––––––

Number of tracks: 15
Official DR value: DR13

Samplerate: 96000 Hz
Channels: 2
Bits per sample: 24
Bitrate: 2264 kbps
Codec: FLAC
================================================================================



Thanks to the Original customer.