Ji - Bach: Goldberg Variations, BWV 988 (2018) [Official Digital Download]

Posted By: SERTiL
Ji - Bach: Goldberg Variations, BWV 988 (2018) [Official Digital Download]

Ji - Bach: Goldberg Variations, BWV 988 (2018)
FLAC (tracks) 24-bit/44.1 kHz | Time - 60:11 minutes | 486 MB
Studio Master, Official Digital Download | Artwork: Digital Booklet

The Korean-born, US-trained pianist known simply as Ji is very much a classical musician for the 21st century. Having won the New York Philharmonic’s Young Artists Competition at the age of just 10, he went on to study at the prestigious Juilliard School. Described by the Chicago Tribune as “a gifted, sensitive young pianist who is clearly going places,” he has chosen Bach’s sublime Goldberg Variations for his debut on Warner Classics. “Classical music is never going away,” he says, “We live in very modern world, and its our job to live in the moment, but it’s also our job to respect and preserve tradition.” For his first Warner Classics release Ji has perhaps made a surprising choice: not a spectacular programme of Romantic showpieces, but a discreetly sublime and often reflective work composed in the first half of the 18th century: Bach’s Goldberg Variations. Writing of his fascination with Bach and his music, Ji has said: “Why do I feel this inexplicable emotional connection to someone I have never met? … Music, it’s a magical thing that allows everyone to connect with the authentic emotions that another soul chooses to express.”

Tracklist:

Johann Sebastian Bach (1685 - 1750)

01. Goldberg Variations, BWV 988: I. Aria
02. Goldberg Variations, BWV 988: II. Variation 1 a 1 clav
03. Goldberg Variations, BWV 988: III. Variation 2 a 1 clav
04. Goldberg Variations, BWV 988: IV. Variation 3-Canone all Unisuono a 1 clav.
05. Goldberg Variations, BWV 988: V. Variation 4 a 1 clav.
06. Goldberg Variations, BWV 988: VI. Variation 5 a 1 o vero 2 clav.
07. Goldberg Variations, BWV 988: VII. Variation 6 Canone alla seconda a 1 clav.
08. Goldberg Variations, Bwv 988: VIII. Variation 7 A 1 O Vero 2 Clav.
09. Goldberg Variations, BWV 988: IX. Variation 8 a 2 clav.
10. Goldberg Variations, BWV 988: X. Variation 9 Canone alla terza a 2 clav.
11. Goldberg Variations, BWV 988: XI. Variation 10 Fughetta a 1 clav.
12. Goldberg Variations, BWV 988: XII. Variation 11 a 2 clav.
13. Goldberg Variations, Bwv 988: XIII. Variation 12 A 2 Clav.
14. Goldberg Variations, BWV 988: XIV. Variation 13 a 2 clav.
15. Goldberg Variations, BWV 988: Variation 14 a 2 clav.
16. Goldberg Variations, BWV 988: Variation 15 Canone alla Quinta a 1 clav
17. Goldberg Variations, BWV 988: Variation 16 a 1 clav. Ouvertura
18. Goldberg Variations, Bwv 988: XVIII. Variation 17 A 2 Clav
19. Goldberg Variations, BWV 988: Variation 18 Canone alla sexta a 1 clav.
20. Goldberg Variations, BWV 988: XX. Variation 19 a 1 clav.
21. Goldberg Variations, BWV 988: XXI. Variation 20 a 2 clav.
22. Goldberg Variations, Bwv 988: Xxii. Variation 21 Canone Alla Settima A 1 Clav
23. Goldberg Variations, Bwv 988: Xxiii. Variation 22 A 1 Clav. Alla Breve
24. Goldberg Variations, Bwv 988: Xxiv. Variation 23 A 2 Clav.
25. Goldberg Variations, BWV 988: XXV. Variation 24 Canone alla Ottava a 1 clav
26. Goldberg Variations, Bwv 988: Xxvi. Variation 25 A 2 Clav.
27. Goldberg Variations, Bwv 988: Xxvii. Variation 26 A 2 Clav.
28. Goldberg Variations, Bwv 988: Xxviii. Variation 27 Canone Alla Nona A 2 Clav
29. Goldberg Variations, Bwv 988: Xxix. Variation 28 A 1 Clav.
30. Goldberg Variations, BWV 988: XXX. Variation 29 a 1 o vero 2 clav.
31. Goldberg Variations, Bwv 988: Xxxi. Variation 30 A 1 Clav. Quodlibet
32. Goldberg Variations, Bwv 988: Xxxii. Aria Da Capo E Fine

Personnel:
Ji, piano

foobar2000 1.3.7 / Dynamic Range Meter 1.1.1
log date: 2018-01-21 15:19:58

––––––––––––––––––––––––––––––––––––––––
Analyzed: Ji / Bach: Goldberg Variations, BWV 988
––––––––––––––––––––––––––––––––––––––––

DR Peak RMS Duration Track
––––––––––––––––––––––––––––––––––––––––
DR12 -9.36 dB -26.57 dB 2:36 01-Goldberg Variations, BWV 988: I. Aria
DR10 -3.40 dB -19.08 dB 1:46 02-Goldberg Variations, BWV 988: II. Variation 1 a 1 clav
DR11 -6.29 dB -21.84 dB 1:11 03-Goldberg Variations, BWV 988: III. Variation 2 a 1 clav
DR11 -9.11 dB -23.53 dB 1:28 04-Goldberg Variations, BWV 988: IV. Variation 3-Canone all Unisuono a 1 clav.
DR10 -1.24 dB -15.38 dB 1:01 05-Goldberg Variations, BWV 988: V. Variation 4 a 1 clav.
DR11 -5.07 dB -18.82 dB 0:39 06-Goldberg Variations, BWV 988: VI. Variation 5 a 1 o vero 2 clav.
DR11 -12.46 dB -27.75 dB 0:54 07-Goldberg Variations, BWV 988: VII. Variation 6 Canone alla seconda a 1 clav.
DR12 -8.86 dB -25.75 dB 2:11 08-Goldberg Variations, Bwv 988: VIII. Variation 7 A 1 O Vero 2 Clav.
DR11 -5.95 dB -20.41 dB 0:51 09-Goldberg Variations, BWV 988: IX. Variation 8 a 2 clav.
DR11 -7.70 dB -23.80 dB 1:23 10-Goldberg Variations, BWV 988: X. Variation 9 Canone alla terza a 2 clav.
DR11 -0.89 dB -15.25 dB 1:44 11-Goldberg Variations, BWV 988: XI. Variation 10 Fughetta a 1 clav.
DR11 -8.42 dB -21.96 dB 0:54 12-Goldberg Variations, BWV 988: XII. Variation 11 a 2 clav.
DR11 -5.64 dB -20.22 dB 1:34 13-Goldberg Variations, Bwv 988: XIII. Variation 12 A 2 Clav.
DR12 -7.80 dB -26.26 dB 4:29 14-Goldberg Variations, BWV 988: XIV. Variation 13 a 2 clav.
DR11 -3.89 dB -18.25 dB 1:28 15-Goldberg Variations, BWV 988: Variation 14 a 2 clav.
DR13 -7.61 dB -26.74 dB 3:58 16-Goldberg Variations, BWV 988: Variation 15 Canone alla Quinta a 1 clav
DR12 -1.38 dB -16.51 dB 2:48 17-Goldberg Variations, BWV 988: Variation 16 a 1 clav. Ouvertura
DR10 -4.97 dB -20.33 dB 0:56 18-Goldberg Variations, Bwv 988: XVIII. Variation 17 A 2 Clav
DR10 -4.66 dB -18.93 dB 1:29 19-Goldberg Variations, BWV 988: Variation 18 Canone alla sexta a 1 clav.
DR10 -5.38 dB -21.10 dB 0:39 20-Goldberg Variations, BWV 988: XX. Variation 19 a 1 clav.
DR10 -4.82 dB -19.44 dB 1:01 21-Goldberg Variations, BWV 988: XXI. Variation 20 a 2 clav.
DR12 -6.70 dB -23.46 dB 2:41 22-Goldberg Variations, Bwv 988: Xxii. Variation 21 Canone Alla Settima A 1 Clav
DR11 -2.25 dB -16.76 dB 1:44 23-Goldberg Variations, Bwv 988: Xxiii. Variation 22 A 1 Clav. Alla Breve
DR12 -0.33 dB -17.55 dB 2:00 24-Goldberg Variations, Bwv 988: Xxiv. Variation 23 A 2 Clav.
DR11 -5.04 dB -21.10 dB 1:32 25-Goldberg Variations, BWV 988: XXV. Variation 24 Canone alla Ottava a 1 clav
DR13 -4.81 dB -25.55 dB 5:38 26-Goldberg Variations, Bwv 988: Xxvi. Variation 25 A 2 Clav.
DR11 -2.15 dB -18.42 dB 1:47 27-Goldberg Variations, Bwv 988: Xxvii. Variation 26 A 2 Clav.
DR11 -2.53 dB -16.09 dB 0:52 28-Goldberg Variations, Bwv 988: Xxviii. Variation 27 Canone Alla Nona A 2 Clav
DR11 -0.94 dB -18.28 dB 1:58 29-Goldberg Variations, Bwv 988: Xxix. Variation 28 A 1 Clav.
DR10 -0.37 dB -12.27 dB 2:07 30-Goldberg Variations, BWV 988: XXX. Variation 29 a 1 o vero 2 clav.
DR11 -0.32 dB -14.03 dB 1:54 31-Goldberg Variations, Bwv 988: Xxxi. Variation 30 A 1 Clav. Quodlibet
DR14 -11.65 dB -31.93 dB 3:15 32-Goldberg Variations, Bwv 988: Xxxii. Aria Da Capo E Fine
––––––––––––––––––––––––––––––––––––––––

Number of tracks: 32
Official DR value: DR11

Samplerate: 44100 Hz
Channels: 2
Bits per sample: 24
Bitrate: 935 kbps
Codec: FLAC
================================================================================


Thanks to the Original customer.