Joan Armatrading - Consequences (2021) [Official Digital Download]

Posted By: pyatak
Joan Armatrading - Consequences (2021) [Official Digital Download]

Joan Armatrading - Consequences (2021) [Official Digital Download]
FLAC (tracks) 24-bit/44.1 kHz | Front Cover | Time - 34:45 minutes | 396 MB
Pop, Singer - Songwriter | Label: BMG, Official Digital Download

Joan is a 3 times Grammy Nominated Singer / Songwriter. Consequences, Joan Armatrading’s new album, is one of her most intimate and direct albums yet and one that wears its conscience and its heart on its sleeve. Released via BMG, and her 22nd studio album to date, it ably illustrates the fact that Joan Armatrading never likes to repeat herself. It is a very different follow up to 2018’s Top 30 hit album Not Too Far Away.

TRACKLIST

1. Joan Armatrading - Natural Rhythm
2. Joan Armatrading - Already There
3. Joan Armatrading - To Be Loved
4. Joan Armatrading - Better Life
5. Joan Armatrading - Glorious Madness
6. Joan Armatrading - Like
7. Joan Armatrading - Consequences
8. Joan Armatrading - Sunrise (Instrumental)
9. Joan Armatrading - Think about Me
10. Joan Armatrading - To Anyone Who Will Listen

foobar2000 1.6.2 / Dynamic Range Meter 1.1.1
log date: 2021-06-17 13:14:35

––––––––––––––––––––––––––––––––––––––––
Analyzed: Joan Armatrading / Consequences
––––––––––––––––––––––––––––––––––––––––

DR Peak RMS Duration Track
––––––––––––––––––––––––––––––––––––––––
DR12 -1.12 dB -14.77 dB 3:35 01-Natural Rhythm
DR12 -0.89 dB -14.94 dB 3:42 02-Already There
DR12 -1.12 dB -14.97 dB 3:17 03-To Be Loved
DR12 -0.76 dB -14.97 dB 3:20 04-Better Life
DR12 -0.89 dB -14.75 dB 3:15 05-Glorious Madness
DR12 -0.67 dB -15.28 dB 3:03 06-Like
DR13 -0.48 dB -15.65 dB 4:49 07-Consequences
DR12 -1.00 dB -15.42 dB 3:07 08-Sunrise (Instrumental)
DR13 -0.63 dB -16.04 dB 3:00 09-Think about Me
DR10 -1.15 dB -13.55 dB 3:36 10-To Anyone Who Will Listen
––––––––––––––––––––––––––––––––––––––––

Number of tracks: 10
Official DR value: DR12

Samplerate: 44100 Hz
Channels: 2
Bits per sample: 24
Bitrate: 1343 kbps
Codec: FLAC
================================================================================



Thanks to the Original customer.