Joan Baez - 1962 - In Concert Part 2 (1963/2019) [Official Digital Download]

Posted By: pyatak
Joan Baez - 1962 - In Concert Part 2 (1963/2019) [Official Digital Download]

Joan Baez - 1962 - In Concert Part 2 (1963/2019) [Official Digital Download]
FLAC (tracks) 24-bit/44.1 kHz | Front Cover | Time - 61:04 minutes | 644 MB
Folk | Label: RevOla, Official Digital Download

Joan Baez in Concert, Part 2 was a second installment of live material, recorded during Joan Baez' concert tours of early 1963. It peaked at number 7 on the Billboard Pop Albums chart.

In Concert, Part 2 is the first Baez album to feature Bob Dylan covers: "Don't Think Twice It's Alright" and "With God on Our Side" (according to Baez, the first Dylan song she ever learned[citation needed]). Her recording of "We Shall Overcome" was made at Miles College in Birmingham, Alabama, on the same day of the mass arrest of Civil Rights demonstrators in May 1963.

The jacket notes contain an untitled poem by Bob Dylan with the recurring theme "An' I walked my road an' sung my song", which makes reference to Baez and the relationship between the two.

On the original vinyl Vanguard releases, the stere] and mono releases had different track lists; the track "With God on Our Side" from the stereo release is dropped; in its place on the mono release are the tracks "Railroad Bill" and "Rambler Gambler".

In 1988, Vanguard released most of the Part 2 release along with most of Part 1 in a combined CD called Joan Baez in Concert (both albums in full would not fit onto a single CD).

A Vanguard reissue in 2002 contains all of the tracks from the stereo and mono releases, as well as three previously unreleased tracks: "Death of Emmett Till," "Tomorrow is a Long Time" and "When First Unto This Country A Stranger I Came."

TRACKLIST

1. Joan Baez - Once I Had A Sweetheart (Remastered, Live)
2. Joan Baez - Jackaroe (Remastered, Live)
3. Joan Baez - Don't Think Twice, It's All Right (Remastered, Live)
4. Joan Baez - We Shall Overcome (Remastered, Live)
5. Joan Baez - Portland Town (Remastered, Live)
6. Joan Baez - Queen Of Hearts (Remastered, Live)
7. Joan Baez - Manhã De Carnaval - Te Ador (Remastered, Live)
8. Joan Baez - Long Black Veil (Remastered, Live)
9. Joan Baez - Fennario (Remastered, Live)
10. Joan Baez - 'Nu Bello Cardillo (Remastered, Live)
11. Joan Baez - With God On Our Side (Remastered, Live)
12. Joan Baez - Three Fishers (Remastered, Live)
13. Joan Baez - Hush Little Baby (Remastered, Live)
14. Joan Baez - Battle Hymn Of The Republic (Remastered, Live)
15. Joan Baez - Rambler Gambler (Remastered, Live)
16. Joan Baez - Railroad Bill (Remastered, Live)
17. Joan Baez - Death Of Emmett Till (Remastered, Live)
18. Joan Baez - Tomorrow Is A Long Time (Remastered, Live)
19. Joan Baez - When First Unto This Country A Stranger I Came (Remastered, Live)

foobar2000 1.6.2 / Dynamic Range Meter 1.1.1
log date: 2021-06-07 12:41:11

––––––––––––––––––––––––––––––––––––––––
Analyzed: Joan Baez / 1962 - In Concert Part 2
––––––––––––––––––––––––––––––––––––––––

DR Peak RMS Duration Track
––––––––––––––––––––––––––––––––––––––––
DR12 -3.99 dB -21.32 dB 3:12 01-Once I Had A Sweetheart (Remastered, Live)
DR12 -4.52 dB -20.81 dB 3:06 02-Jackaroe (Remastered, Live)
DR13 -3.26 dB -19.79 dB 3:11 03-Don't Think Twice, It's All Right (Remastered, Live)
DR11 -0.41 dB -16.09 dB 3:31 04-We Shall Overcome (Remastered, Live)
DR12 -1.21 dB -19.47 dB 2:48 05-Portland Town (Remastered, Live)
DR11 -3.59 dB -20.32 dB 2:31 06-Queen Of Hearts (Remastered, Live)
DR12 0.00 dB -18.83 dB 4:50 07-Manhã De Carnaval - Te Ador (Remastered, Live)
DR13 -0.55 dB -17.65 dB 3:05 08-Long Black Veil (Remastered, Live)
DR11 -2.56 dB -19.73 dB 4:01 09-Fennario (Remastered, Live)
DR11 -5.11 dB -21.33 dB 2:57 10-'Nu Bello Cardillo (Remastered, Live)
DR12 -3.67 dB -20.06 dB 6:14 11-With God On Our Side (Remastered, Live)
DR12 -3.49 dB -20.23 dB 2:45 12-Three Fishers (Remastered, Live)
DR11 -1.85 dB -21.31 dB 1:25 13-Hush Little Baby (Remastered, Live)
DR11 -0.59 dB -16.32 dB 3:24 14-Battle Hymn Of The Republic (Remastered, Live)
DR12 -1.31 dB -18.76 dB 2:05 15-Rambler Gambler (Remastered, Live)
DR14 -2.52 dB -21.04 dB 2:08 16-Railroad Bill (Remastered, Live)
DR14 -2.69 dB -20.72 dB 3:53 17-Death Of Emmett Till (Remastered, Live)
DR14 -2.17 dB -21.18 dB 3:14 18-Tomorrow Is A Long Time (Remastered, Live)
DR12 -0.07 dB -19.07 dB 2:46 19-When First Unto This Country A Stranger I Came (Remastered, Live)
––––––––––––––––––––––––––––––––––––––––

Number of tracks: 19
Official DR value: DR12

Samplerate: 44100 Hz
Channels: 2
Bits per sample: 24
Bitrate: 1374 kbps
Codec: FLAC
================================================================================



Thanks to the Original customer.