Jodie Devos - Offenbach Colorature (2019) [Official Digital Download 24/96]

Posted By: SERTiL
Jodie Devos - Offenbach Colorature (2019) [Official Digital Download 24/96]

Jodie Devos - Offenbach Colorature (2019)
FLAC (tracks) 24-bit/96 kHz | Time - 60:51 minutes | 1.02 GB
Studio Master, Official Digital Download | Artwork: Digital Booklet

Soprano Jodie Devos, who has signed with Alpha for several recordings, here pays homage to Offenbach, whose bicentenary of his birth is celebrated in 2019. This programme shows Offenbach’s fascination with the vocal fireworks of coloratura divas. This kind of ‘lyric coloratura’ or ‘soprano leggero’ voice runs like a thread through most of the composer’s oeuvre, from his first pieces for two or three soloists to those grand frescoes of his maturity, La Vie parisienne, Robinson Crusoé, and Orphée aux Enfers. The coloratura soprano also adorns Offenbach’s less frivolous operettas (such as Fantasio), as well as his only serious opera – Les Contes d’Hoffmann – in which the role of the doll (with only one aria, but what an aria!) is among the most famous in the entire French repertoire. Concocted collaboratively with Alexandre Dratwicki and the Palazzetto Bru Zane, this recorded programme – tailor-made for Jodie Devos – presents innumerable rarities from Mesdames de la Halle, Boule-de-Neige,Un mari à la porte, Le Roi Carotte, Le Voyage dans la lune, and Vert-Vert. In the famous Barcarolle "Belle nuit, Ô nuit d'amour", she is joined by up-and-coming mezzo-soprano Adèle Charvet.

Tracklist:
01. Boule de neige, Acte I Scene 2 Couplet de la dompteuse Je suis du pays vermeil
02. Vert-Vert, Acte II Scenes 7B & C Air de la Corilla Les plus beaux vers sont toujours fades
03. Orphee aux Enfers Invocation a la mort La mort m'apparait souriante
04. Un mari a la porte Valse tyrolienne de Rosita J'entends ma belle
05. Fantasio Air d'Elsbeth Cachons l'ennui de mon ame
06. Les Bavards, Acte I Scene 3 Air d'Ines Ce sont detranges personnages
07. Mesdames de la halle Rondo de Ciboulette Quel bruit et quel tapage
08. Le Roi Carotte Romance des Fleurs Le voila c'est bien lui
09. Les bergers Ouverture
10. Fantasio Romance d'Elsbeth Voila toute la ville en fete
11. Les Contes d'Hoffmann Couplets de la poupee Les oiseaux dans la charmille
12. Robinson Crusoe, Acte II, 2eme tableau, Scene 14C Valse d'Edwige Conduisez-moi vers celui que j'adore
13. Boule de Neige, Acte I Scene 3 Romance des souvenirs d'Olga Souvenance
14. Boule de Neige, Acte II Scene 14 Chanson d'Olga Allons, couchez
15. Les Contes d'Hoffmann Prelude & Barcarolle Belle nuit, O nuit d'amour
16. Le voyage dans la lune, Acte III Scene 21 Ariette de Fantasia Je suis nerveuse

Personnel:
Jodie Devos, soprano​
Münchner Rundfunkorchester​
Laurent Campellone, conductor ​

foobar2000 1.3.7 / Dynamic Range Meter 1.1.1
log date: 2019-01-11 19:59:07

––––––––––––––––––––––––––––––––––––––––
Analyzed: Jodie Devos / Offenbach Colorature (1-15)
Münchner Rundfunkorchester​ / Offenbach Colorature (16)
––––––––––––––––––––––––––––––––––––––––

DR Peak RMS Duration Track
––––––––––––––––––––––––––––––––––––––––
DR12 -2.08 dB -19.54 dB 2:03 01-Boule de neige, Acte I Scene 2 Couplet de la dompteuse Je suis du pays vermeil
DR13 -2.46 dB -21.23 dB 4:05 02-Vert-Vert, Acte II Scenes 7B & C Air de la Corilla Les plus beaux vers sont toujours fades
DR13 -1.02 dB -22.56 dB 2:22 03-Orphee aux Enfers Invocation a la mort La mort m'apparait souriante
DR13 -1.02 dB -20.46 dB 4:02 04-Un mari a la porte Valse tyrolienne de Rosita J'entends ma belle
DR14 -1.05 dB -20.83 dB 5:13 05-Fantasio Air d'Elsbeth Cachons l'ennui de mon ame
DR15 -2.81 dB -21.56 dB 2:51 06-Les Bavards, Acte I Scene 3 Air d'Ines Ce sont detranges personnages
DR14 -1.08 dB -20.22 dB 4:51 07-Mesdames de la halle Rondo de Ciboulette Quel bruit et quel tapage
DR12 -2.86 dB -20.40 dB 4:07 08-Le Roi Carotte Romance des Fleurs Le voila c'est bien lui
DR12 -1.02 dB -20.93 dB 4:04 10-Fantasio Romance d'Elsbeth Voila toute la ville en fete
DR14 -1.68 dB -21.21 dB 6:02 11-Les Contes d'Hoffmann Couplets de la poupee Les oiseaux dans la charmille
DR12 -1.09 dB -17.88 dB 3:47 12-Robinson Crusoe, Acte II, 2eme tableau, Scene 14C Valse d'Edwige Conduisez-moi vers celui que j'adore
DR14 -1.81 dB -21.66 dB 2:26 13-Boule de Neige, Acte I Scene 3 Romance des souvenirs d'Olga Souvenance
DR14 -3.60 dB -23.11 dB 4:00 14-Boule de Neige, Acte II Scene 14 Chanson d'Olga Allons, couchez
DR13 -1.33 dB -22.99 dB 4:03 15-Les Contes d'Hoffmann Prelude & Barcarolle Belle nuit, O nuit d'amour
DR14 -1.09 dB -20.10 dB 2:22 16-Le voyage dans la lune, Acte III Scene 21 Ariette de Fantasia Je suis nerveuse
DR13 -1.12 dB -20.58 dB 4:40 09-Les bergers Ouverture
––––––––––––––––––––––––––––––––––––––––

Number of tracks: 16
Official DR value: DR13

Samplerate: 96000 Hz
Channels: 2
Bits per sample: 24
Bitrate: 2345 kbps
Codec: FLAC
================================================================================


Thanks to the Original customer.