Tags
Language
Tags
January 2023
Su Mo Tu We Th Fr Sa
1 2 3 4 5 6 7
8 9 10 11 12 13 14
15 16 17 18 19 20 21
22 23 24 25 26 27 28
29 30 31 1 2 3 4

Joel Ross - The Parable Of The Poet (2022) [Official Digital Download 24/96]

Posted By: pyatak
Joel Ross - The Parable Of The Poet (2022) [Official Digital Download 24/96]

Joel Ross - The Parable Of The Poet (2022) [Official Digital Download 24/96]
FLAC (tracks) 24-bit/96 kHz | Front Cover | Time - 51:16 minutes | 961 MB
Jazz | Studio Master, Official Digital Download

Vibraphonist and composer Joel Ross returns with stunning conviction on The Parable of the Poet, an expansive album-length suite composed by Ross which marks his 3rd release for Blue Note following his 2019 debut KingMaker and 2020’s Who Are You?.

The Parable of the Poet will be released April 15 on vinyl, CD, and digital formats, and is introduced with the sublime opening movement “PRAYER.”

TRACKLIST

1 PRAYER
2 GUILT
3 CHOICES
4 WAIL
5 THE IMPETUS (To Be And Do Better)
6 DOXOLOGY (Hope)
7 BENEDICTION

foobar2000 1.6.2 / Dynamic Range Meter 1.1.1
log date: 2022-04-14 13:03:00

––––––––––––––––––––––––––––––––––––––––
Analyzed: Joel Ross / The Parable Of The Poet
––––––––––––––––––––––––––––––––––––––––

DR Peak RMS Duration Track
––––––––––––––––––––––––––––––––––––––––
DR12 -0.25 dB -16.37 dB 7:45 01-PRAYER
DR12 -0.31 dB -17.06 dB 9:22 02-GUILT
DR12 -0.21 dB -16.02 dB 7:45 03-CHOICES
DR12 -0.21 dB -15.30 dB 10:20 04-WAIL
DR13 -1.76 dB -18.61 dB 6:22 05-THE IMPETUS (To Be And Do Better)
DR12 -0.33 dB -14.50 dB 4:00 06-DOXOLOGY (Hope)
DR12 -0.35 dB -15.81 dB 5:44 07-BENEDICTION
––––––––––––––––––––––––––––––––––––––––

Number of tracks: 7
Official DR value: DR12

Samplerate: 96000 Hz
Channels: 2
Bits per sample: 24
Bitrate: 2572 kbps
Codec: FLAC
================================================================================



Thanks to the Original customer.