John Coltrane - Olé Coltrane (1961/2015) [Official Digital Download 24/192]

Posted By: pyatak
John Coltrane - Olé Coltrane (1961/2015) [Official Digital Download 24/192]

John Coltrane - Olé Coltrane (1961/2015) [Official Digital Download 24/192]
FLAC (tracks) 24-bit/192 kHz | Front Cover | Time - 36:49 minutes | 1,35 GB
Jazz | Label: Rhino Atlantic, Official Digital Download

Olé Coltrane is the ninth album by jazz musician John Coltrane, released in 1961 on Atlantic Records, catalogue SD 1373. The album was recorded at A&R Studios in New York, and was the last of Coltrane's Atlantic albums to be made under his own supervision.

TRACKLIST

1. John Coltrane - Olé
2. John Coltrane - Dahomey Dance
3. John Coltrane - Aisha

foobar2000 1.6.2 / Dynamic Range Meter 1.1.1
log date: 2021-04-07 18:00:22

––––––––––––––––––––––––––––––––––––––––
Analyzed: John Coltrane / Olé Coltrane
––––––––––––––––––––––––––––––––––––––––

DR Peak RMS Duration Track
––––––––––––––––––––––––––––––––––––––––
DR11 -0.10 dB -14.63 dB 18:18 01-Olé
DR11 -0.10 dB -13.68 dB 10:53 02-Dahomey Dance
DR13 -1.51 dB -18.74 dB 7:38 03-Aisha
––––––––––––––––––––––––––––––––––––––––

Number of tracks: 3
Official DR value: DR12

Samplerate: 192000 Hz
Channels: 2
Bits per sample: 24
Bitrate: 5028 kbps
Codec: FLAC
================================================================================



Thanks to the Original customer.