John Coltrane - Ultimate Jazz Classics - Giant Steps & My Favorite Things (2021) [Official Digital Download 24/96]

Posted By: pyatak
John Coltrane - Ultimate Jazz Classics - Giant Steps & My Favorite Things (2021) [Official Digital Download 24/96]

John Coltrane - Ultimate Jazz Classics- Giant Steps & My Favorite Things (2021) [Official Digital Download 24/96]
FLAC (tracks) 24-bit/96 kHz | Front Cover | Time - 78:45 minutes | 1,65 GB
Jazz | Label: Musical Concepts, Official Digital Download

John William Coltrane (September 23, 1926 – July 17, 1967) was an American jazz saxophonist and composer. Working in the bebop and hard bop idioms early in his career, Coltrane helped pioneer the use of modes and was at the forefront of free jazz. He led at least fifty recording sessions and appeared on many albums by other musicians, including trumpeter Miles Davis and pianist Thelonious Monk. Over the course of his career, Coltrane's music took on an increasingly spiritual dimension, as exemplified on his most acclaimed albums A Love Supreme (1965) and Ascension (1966). He remains one of the most influential saxophonists in music history. He received numerous posthumous awards, including a Pulitzer Prize in 2007, and was canonized by the African Orthodox Church. His second wife was pianist and harpist Alice Coltrane. The couple had three children: John Jr. (1964–1982), a bassist; Ravi (born 1965), a saxophonist; and Oran (born 1967), also a saxophonist.

TRACKLIST

1. John Coltrane - Giant Steps
2. John Coltrane - Cousin Mary
3. John Coltrane - Countdown
4. John Coltrane - Spiral
5. John Coltrane - Syeeda's Song Flute
6. John Coltrane - Naima
7. John Coltrane - Mr. P.C.
8. John Coltrane - My Favorite Things
9. John Coltrane - Everytime We Say Goodbye
10. John Coltrane - Summertime
11. John Coltrane - But Not for Me

foobar2000 1.6.2 / Dynamic Range Meter 1.1.1
log date: 2021-06-18 01:00:37

––––––––––––––––––––––––––––––––––––––––
Analyzed: John Coltrane / Ultimate Jazz Classics: Giant Steps & My Favorite Things
––––––––––––––––––––––––––––––––––––––––

DR Peak RMS Duration Track
––––––––––––––––––––––––––––––––––––––––
DR10 -0.20 dB -13.47 dB 4:49 01-Giant Steps
DR10 -0.20 dB -13.82 dB 5:50 02-Cousin Mary
DR11 -1.56 dB -17.46 dB 2:26 03-Countdown
DR10 -0.30 dB -13.52 dB 6:02 04-Spiral
DR11 -0.20 dB -15.47 dB 7:06 05-Syeeda's Song Flute
DR12 -2.95 dB -20.42 dB 4:25 06-Naima
DR10 -0.20 dB -12.65 dB 7:02 07-Mr. P.C.
DR12 -0.02 dB -15.65 dB 13:53 08-My Favorite Things
DR13 -2.84 dB -19.72 dB 5:47 09-Everytime We Say Goodbye
DR12 -1.09 dB -15.60 dB 11:42 10-Summertime
DR12 -0.69 dB -15.31 dB 9:46 11-But Not for Me
––––––––––––––––––––––––––––––––––––––––

Number of tracks: 11
Official DR value: DR11

Samplerate: 96000 Hz
Channels: 2
Bits per sample: 24
Bitrate: 2895 kbps
Codec: FLAC
================================================================================



Thanks to the Original customer.