John Lee Hooker - It Serves You Right To Suffer (1973/2013) [Official Digital Download 24/96]

Posted By: pyatak
John Lee Hooker - It Serves You Right To Suffer (1973/2013) [Official Digital Download 24/96]

John Lee Hooker - It Serves You Right To Suffer (1973/2013) [Official Digital Download 24/96]
FLAC (tracks) 24-bit/44.1 kHz | Front Cover | Time - 32:37 minutes | 644 MB
Blues | Label: Geffen*, Official Digital Download

John Lee Hooker's 1966 release It Serves You Right To Suffer is his first and only recording for the Impulse! label, specifically its folk subdivision, although Hooker is backed by jazz session players including second guitarist Barry Galbraith, bassist Milt Hinton and drummer David "Panama" Francis. The trio superbly enhances Hooker's guitar and vocals as he revisits some of his older songs and presents new tunes, along with a cover of Barrett Strong's Motown hit Money featuring trombonist William Wells.

TRACKLIST

1. John Lee Hooker - Shake It Baby (Album Version)
2. John Lee Hooker - Country Boy (Album Version)
3. John Lee Hooker - Bottle Up & Go (Album Version)
4. John Lee Hooker - You're Wrong (Album Version)
5. John Lee Hooker - Sugar Mama (Album Version)
6. John Lee Hooker - Decoration Day (Album Version)
7. John Lee Hooker - Money (Album Version)
8. John Lee Hooker - It Serves You Right To Suffer (Album Version)

foobar2000 1.6.2 / Dynamic Range Meter 1.1.1
log date: 2021-05-29 19:13:53

––––––––––––––––––––––––––––––––––––––––
Analyzed: John Lee Hooker / It Serves You Right To Suffer
––––––––––––––––––––––––––––––––––––––––

DR Peak RMS Duration Track
––––––––––––––––––––––––––––––––––––––––
DR12 0.00 dB -13.83 dB 4:20 01-Shake It Baby (Album Version)
DR13 -3.21 dB -20.00 dB 5:37 02-Country Boy (Album Version)
DR13 -0.01 dB -15.45 dB 2:26 03-Bottle Up & Go (Album Version)
DR13 -1.13 dB -16.25 dB 4:19 04-You're Wrong (Album Version)
DR14 0.00 dB -16.52 dB 3:12 05-Sugar Mama (Album Version)
DR12 -0.96 dB -17.91 dB 5:06 06-Decoration Day (Album Version)
DR13 0.00 dB -14.53 dB 2:24 07-Money (Album Version)
DR15 -0.74 dB -19.32 dB 5:13 08-It Serves You Right To Suffer (Album Version)
––––––––––––––––––––––––––––––––––––––––

Number of tracks: 8
Official DR value: DR13

Samplerate: 96000 Hz
Channels: 2
Bits per sample: 24
Bitrate: 2648 kbps
Codec: FLAC
================================================================================



Thanks to the Original customer.