John Lennon - Milk And Honey (1984/2014) [Official Digital Download 24/96]

Posted By: pyatak
John Lennon - Milk And Honey (1984/2014) [Official Digital Download 24/96]

John Lennon - Milk And Honey (1984/2014) [Official Digital Download 24/96]
FLAC (tracks) 24-bit/96 kHz | Front Cover | Time - 36:50 minutes | 741 MB
Rock | Label: UMC (Universal Music Catalogue), Official Digital Download

UK Albums Chart - #3, 1984
Billboard 200 - #11, 1984

"… the album sounds great. The production by Lennon and Ono is precise and crystalline … they utilize many of the same top-notch session musicians as on Double Fantasy.
- Rolling Stone

"… finds Lennon in a happy state of mind, which is not a bad way to end a story at all."
- PopMatters.com

Consisting of songs John Lennon recorded during the Double Fantasy sessions, Milk and Honey was Lennon's first posthumous release. Originally intended as the follow-up to Double Fantasy, Yoko Ono didn't resume working on it for three years after Lennon's murder. Milk and Honey includes the worldwide top 10 hit single Nobody Told Me.

TRACKLIST

1. John Lennon - I'm Stepping Out
2. Yoko Ono - Sleepless Night (Remastered 2010)
3. John Lennon - I Don't Wanna Face It (Remastered 2010)
4. Yoko Ono - Don't Be Scared (Remastered 2010)
5. John Lennon - Nobody Told Me
6. Yoko Ono - O'Sanity (Remastered 2010)
7. John Lennon - Borrowed Time (Remastered 2010)
8. Yoko Ono - Your Hands (Remastered 2010)
9. John Lennon - (Forgive Me) My Little Flower Princess (Remastered 2010)
10. Yoko Ono - Let Me Count The Ways (Remastered 2010)
11. John Lennon - Grow Old With Me
12. Yoko Ono - You're The One (Remastered 2010)

foobar2000 1.6.2 / Dynamic Range Meter 1.1.1
log date: 2021-04-07 20:04:36

––––––––––––––––––––––––––––––––––––––––
Analyzed: John Lennon / Milk And Honey (1-6)
Yoko Ono / Milk And Honey (7-12)
––––––––––––––––––––––––––––––––––––––––

DR Peak RMS Duration Track
––––––––––––––––––––––––––––––––––––––––
DR9 -1.21 dB -11.19 dB 4:06 01-I'm Stepping Out
DR9 -1.21 dB -11.71 dB 3:22 03-I Don't Wanna Face It (Remastered 2010)
DR9 -1.21 dB -11.42 dB 3:34 05-Nobody Told Me
DR9 -1.21 dB -12.68 dB 4:29 07-Borrowed Time (Remastered 2010)
DR10 -1.21 dB -12.51 dB 2:28 09-(Forgive Me) My Little Flower Princess (Remastered 2010)
DR10 -1.21 dB -13.13 dB 3:09 11-Grow Old With Me
DR11 -1.21 dB -13.75 dB 2:34 02-Sleepless Night (Remastered 2010)
DR11 -1.21 dB -14.45 dB 2:45 04-Don't Be Scared (Remastered 2010)
DR10 -1.21 dB -13.29 dB 1:07 06-O'Sanity (Remastered 2010)
DR8 -1.21 dB -10.89 dB 3:04 08-Your Hands (Remastered 2010)
DR11 -1.21 dB -17.70 dB 2:17 10-Let Me Count The Ways (Remastered 2010)
DR10 -1.21 dB -13.28 dB 3:55 12-You're The One (Remastered 2010)
––––––––––––––––––––––––––––––––––––––––

Number of tracks: 12
Official DR value: DR10

Samplerate: 96000 Hz
Channels: 2
Bits per sample: 24
Bitrate: 2786 kbps
Codec: FLAC
================================================================================



Thanks to the Original customer.