John Lennon - Mind Games (1973/2014) [Official Digital Download 24/96]

Posted By: pyatak
John Lennon - Mind Games (1973/2014) [Official Digital Download 24/96]

John Lennon - Mind Games (1973/2014) [Official Digital Download 24/96]
FLAC (tracks) 24-bit/96 kHz | Front Cover | Time - 41:02 minutes | 878 MB
Rock | Label: (Universal Music Catalogue), Official Digital Download

Mind Games is the fourth studio album by English musician John Lennon. It was recorded at Record Plant Studios in New York in summer 1973. The album was released in the US on 29 October 1973 and in the UK on 16 November 1973. It was Lennon's first self-produced recording without help from Phil Spector. Like his previous album, the politically topical and somewhat abrasive Some Time in New York City, Mind Games received mixed reviews upon release. It reached number 13 in the UK and number 9 in the US, where it was certified gold.

The album was recorded while Lennon was having difficulties with US immigration and at the beginning of his 18-month separation from Yoko Ono. The title track was released as a single at the same time as the album. The album itself was later reissued several times throughout the 1970s and 1980s.

TRACKLIST

1. John Lennon - Mind Games (Remastered 2010)
2. John Lennon - Tight A$ (Remastered 2010)
3. John Lennon - Aisumasen (I'm Sorry) (Remastered 2010)
4. John Lennon - One Day (At A Time) (Remastered 2010)
5. John Lennon - Bring On The Lucie (Freda Peeple) (Remastered 2010)
6. John Lennon - Nutopian International Anthem (Remastered 2010)
7. John Lennon - Intuition (Remastered 2010)
8. John Lennon - Out The Blue (Remastered 2010)
9. John Lennon - Only People (Remastered 2010)
10. John Lennon - I Know (I Know) (Remastered 2010)
11. John Lennon - You Are Here (Remastered 2010)
12. John Lennon - Meat City (Remastered 2010)

foobar2000 1.6.2 / Dynamic Range Meter 1.1.1
log date: 2021-04-09 21:13:21

––––––––––––––––––––––––––––––––––––––––
Analyzed: John Lennon / Mind Games
––––––––––––––––––––––––––––––––––––––––

DR Peak RMS Duration Track
––––––––––––––––––––––––––––––––––––––––
DR12 -0.47 dB -14.60 dB 4:12 01-Mind Games (Remastered 2010)
DR11 -0.42 dB -13.06 dB 3:39 02-Tight A$ (Remastered 2010)
DR11 -0.44 dB -13.10 dB 4:45 03-Aisumasen (I'm Sorry) (Remastered 2010)
DR11 -0.47 dB -13.55 dB 3:11 04-One Day (At A Time) (Remastered 2010)
DR12 -0.43 dB -13.39 dB 4:12 05-Bring On The Lucie (Freda Peeple) (Remastered 2010)
DR4 -60.40 dB -73.91 dB 0:04 06-Nutopian International Anthem (Remastered 2010)
DR13 -0.42 dB -14.25 dB 3:11 07-Intuition (Remastered 2010)
DR10 -0.41 dB -12.98 dB 3:23 08-Out The Blue (Remastered 2010)
DR11 -0.42 dB -13.83 dB 3:29 09-Only People (Remastered 2010)
DR11 -0.41 dB -13.07 dB 3:51 10-I Know (I Know) (Remastered 2010)
DR13 -0.44 dB -15.47 dB 4:13 11-You Are Here (Remastered 2010)
DR10 -0.43 dB -12.42 dB 2:52 12-Meat City (Remastered 2010)
––––––––––––––––––––––––––––––––––––––––

Number of tracks: 12
Official DR value: DR11

Samplerate: 96000 Hz
Channels: 2
Bits per sample: 24
Bitrate: 2727 kbps
Codec: FLAC
================================================================================



Thanks to the Original customer.