Johnny Guitar Watson - Listen (1973/2021) [Official Digital Download 24/192]

Posted By: pyatak
Johnny Guitar Watson - Listen (1973/2021) [Official Digital Download 24/192]

Johnny Guitar Watson - Listen (1973/2021) [Official Digital Download 24/192]
FLAC (tracks) 24-bit/192 kHz | Front Cover | Time - 35:50 minutes | 1,3 GB
Soul, Funk | Label: Craft Recordings, Official Digital Download

Craft Recordings releases this stunning album from American blues, soul, and funk musician and singer-songwriter Johnny Guitar Watson! A flamboyant showman and electric guitarist in the style of T-Bone Walker, Watson recorded throughout the 1950s and 1960s with some success. His creative reinvention in the 1970s with funk overtones, saw Watson have hits with "Ain't That a Bitch" and "Superman Lover". His successful recording career spanned forty years, with his highest chart appearance being the 1977 song "A Real Mother for Ya". His 1973 album Listen was originally recorded for Fantasy Records!

TRACKLIST

1. Johnny Guitar Watson - If I Had The Power
2. Johnny Guitar Watson - You’ve Got A Hard Head
3. Johnny Guitar Watson - Lovin’ You
4. Johnny Guitar Watson - It’s All About You
5. Johnny Guitar Watson - You’re The Sweetest Thing I’ve Ever Had
6. Johnny Guitar Watson - I Get A Feeling
7. Johnny Guitar Watson - Why Don’t You Treat Me Like I’m Your Man
8. Johnny Guitar Watson - You Bring Love
9. Johnny Guitar Watson - You Stole My Heart

foobar2000 1.6.2 / Dynamic Range Meter 1.1.1
log date: 2021-06-11 11:17:26

––––––––––––––––––––––––––––––––––––––––
Analyzed: Johnny Guitar Watson / Listen
––––––––––––––––––––––––––––––––––––––––

DR Peak RMS Duration Track
––––––––––––––––––––––––––––––––––––––––
DR12 -0.50 dB -15.33 dB 4:46 01-If I Had The Power
DR12 -0.50 dB -15.24 dB 4:33 02-You’ve Got A Hard Head
DR11 -0.50 dB -13.87 dB 4:21 03-Lovin’ You
DR10 -0.50 dB -13.13 dB 4:05 04-It’s All About You
DR10 -0.50 dB -12.72 dB 4:05 05-You’re The Sweetest Thing I’ve Ever Had
DR9 -0.50 dB -11.60 dB 3:41 06-I Get A Feeling
DR11 -0.50 dB -14.09 dB 2:59 07-Why Don’t You Treat Me Like I’m Your Man
DR11 -0.50 dB -13.51 dB 3:54 08-You Bring Love
DR11 -0.50 dB -13.99 dB 3:27 09-You Stole My Heart
––––––––––––––––––––––––––––––––––––––––

Number of tracks: 9
Official DR value: DR11

Samplerate: 192000 Hz
Channels: 2
Bits per sample: 24
Bitrate: 5130 kbps
Codec: FLAC
================================================================================



Thanks to the Original customer.