Tags
Language
Tags

Johnny Hartman - Songs From The Heart (1956/2000/2014) [Official Digital Download 24/96]

Posted By:
Johnny Hartman - Songs From The Heart (1956/2000/2014) [Official Digital Download 24/96]

Johnny Hartman - Songs From The Heart (1956/2000/2014) [Official Digital Download 24/96]
FLAC (tracks) 24-bit/96 kHz | Front Cover | Time - 36:08 minutes | 391 MB
Vocal Jazz | Label: Bethlehem Records, Official Digital Download

Songs from the Heart is a 1956 album by Jazz singer Johnny Hartman. It was Hartman's debut album and was released on the Bethlehem label. The album was reissued in 2000 with six additional tracks, alternate takes of songs from the original album.

TRACKLIST

1. Johnny Hartman - What Is There to Say
2. Johnny Hartman - Ain't Misbehavin
3. Johnny Hartman - I Fall In Love Too Easily
4. Johnny Hartman - We'll Be Together Again
5. Johnny Hartman - Down in the Depths
6. Johnny Hartman - They Didn't Believe Me
7. Johnny Hartman - I'm Glad There Is You
8. Johnny Hartman - When Your Lover Has Gone
9. Johnny Hartman - I'll Remember April
10. Johnny Hartman - I See Your Face Before Me
11. Johnny Hartman - September Song
12. Johnny Hartman - Moonlight In Vermont

foobar2000 1.6.2 / Dynamic Range Meter 1.1.1
log date: 2021-05-04 11:10:51

––––––––––––––––––––––––––––––––––––––––
Analyzed: Johnny Hartman / Songs From The Heart
––––––––––––––––––––––––––––––––––––––––

DR Peak RMS Duration Track
––––––––––––––––––––––––––––––––––––––––
DR12 -4.57 dB -19.58 dB 2:49 01-What Is There to Say
DR12 -1.65 dB -16.73 dB 2:50 02-Ain't Misbehavin
DR13 -3.43 dB -19.61 dB 2:24 03-I Fall In Love Too Easily
DR12 -3.20 dB -18.34 dB 3:02 04-We'll Be Together Again
DR13 -1.75 dB -17.78 dB 2:59 05-Down in the Depths
DR13 -2.30 dB -19.58 dB 2:36 06-They Didn't Believe Me
DR13 -2.06 dB -19.67 dB 2:31 07-I'm Glad There Is You
DR14 -2.15 dB -19.57 dB 3:12 08-When Your Lover Has Gone
DR11 -1.99 dB -17.87 dB 3:11 09-I'll Remember April
DR12 -4.01 dB -19.02 dB 3:35 10-I See Your Face Before Me
DR12 -2.74 dB -18.61 dB 3:52 11-September Song
DR16 -1.22 dB -19.98 dB 3:08 12-Moonlight In Vermont
––––––––––––––––––––––––––––––––––––––––

Number of tracks: 12
Official DR value: DR13

Samplerate: 96000 Hz
Channels: 2
Bits per sample: 24
Bitrate: 1466 kbps
Codec: FLAC
================================================================================



Thanks to the Original customer.