Tags
Language
Tags

Jonas Kaufmann - The Tenor (2022) [Official Digital Download 24/96]

Posted By: pyatak
Jonas Kaufmann - The Tenor (2022) [Official Digital Download 24/96]

Jonas Kaufmann - The Tenor (2022) [Official Digital Download 24/96]
FLAC (tracks) 24-bit/96 kHz | Front Cover | Time - 62:06 minutes | 1,11 GB
Classical | Studio Master, Official Digital Download

“The world’s greatest tenor” – at any given moment, across the history of opera and classical singing, those would have been fighting words. Today, it seems only logical that London’s The Telegraph would use them to describe Jonas Kaufmann.

In a sense, he is the latest in a mighty legacy of superstar operatic tenors, from Enrico Caruso to Lauritz Melchior to Luciano Pavarotti. For well over a decade, Kaufmann has been the first choice of the world’s great opera houses – the Metropolitan Opera, Vienna State Opera, Paris Opéra, Bavarian State Opera and the companies at Teatro alla Scala in Milan and Covent Garden in London, among others. His riveting presence and charismatic performances sell out and are the highlights of each operatic season. Among his many triumphs are the tenor heroes and antiheroes of Aida, Carmen, Cavalleria rusticana, Don Carlo, La fanciulla del West, La forza del destino, Lohengrin, Otello, Pagliacci, Parsifal, Peter Grimes, Tosca, Die tote Stadt, Werther and Die Walküre. “Cameragenic” and with an inimitable voice as powerful as it is nuanced and lyrically appealing – the New York Times has praised his “clarion top notes, the blend of virility and tenderness in his singing” – Kaufmann has emerged as the most distinctive and revelatory tenor of his time. Vocally and theatrically, he refines the standards in everything he performs on the operatic and concert stages. His recordings encompass opera, lieder and popular song, and they sell as reliably as they impress critics. In addition to opera and recital performances, Kaufmann has headlined major concert events around the world for even broader audiences, including the Last Night of the Proms at London’s Royal Albert Hall in 2015 and the Summer Night Concert in the park of Vienna’s Schönbrunn Palace in 2020. …

TRACKLIST

1. Jonas Kaufmann - Rigoletto, Atto III, Canzone: "La donna è mobile"
2. Jonas Kaufmann - Manon Lescaut, Atto I: "Donna non vidi mai"
3. Jonas Kaufmann - Tosca, Atto I: "Recondita armonia"
4. Jonas Kaufmann - La Bohème Atto I: "O soave fanciulla"
5. Jonas Kaufmann - Turandot, Atto III: "Nessun Dorma"
6. Jonas Kaufmann - Carmen, Acte II: "Je le veux, Carmen… La fleur que tu m'avais jetée"
7. Jonas Kaufmann - Werther, Acte III: "Traduire… Ah! bien souvent…Pourquoi me réveiller, ô souffle du printemps?"
8. Jonas Kaufmann - Torna a Surriento
9. Jonas Kaufmann - Voglio vivere così
10. Jonas Kaufmann - Mattinata
11. Jonas Kaufmann - Volare
12. Jonas Kaufmann - Parla più piano
13. Jonas Kaufmann - Non ti scordar di me
14. Jonas Kaufmann - Musica proibita
15. Jonas Kaufmann - Rondine al nido
16. Jonas Kaufmann - Catari', Catari' (Core 'ngrato)
17. Jonas Kaufmann - Caruso
18. Jonas Kaufmann - Wiegenlied, Op. 49, No. 4 (Brahms Lullaby)

foobar2000 1.6.2 / Dynamic Range Meter 1.1.1
log date: 2022-04-29 03:07:00

––––––––––––––––––––––––––––––––––––––––
Analyzed: Jonas Kaufmann / Jonas Kaufmann - The Tenor
––––––––––––––––––––––––––––––––––––––––

DR Peak RMS Duration Track
––––––––––––––––––––––––––––––––––––––––
DR13 -0.35 dB -18.52 dB 2:20 01-Rigoletto, Atto III, Canzone: "La donna è mobile"
DR13 -1.49 dB -19.27 dB 2:31 02-Manon Lescaut, Atto I: "Donna non vidi mai"
DR13 -1.34 dB -20.13 dB 2:57 03-Tosca, Atto I: "Recondita armonia"
DR15 -0.32 dB -21.55 dB 4:15 04-La Bohème Atto I: "O soave fanciulla"
DR11 -0.32 dB -16.86 dB 3:08 05-Turandot, Atto III: "Nessun Dorma"
DR14 -0.40 dB -20.62 dB 4:20 06-Carmen, Acte II: "Je le veux, Carmen… La fleur que tu m'avais jetée"
DR13 -0.40 dB -18.00 dB 3:45 07-Werther, Acte III: "Traduire… Ah! bien souvent…Pourquoi me réveiller, ô souffle du printemps?"
DR14 -0.08 dB -18.34 dB 4:00 08-Torna a Surriento
DR13 -0.20 dB -17.84 dB 2:31 09-Voglio vivere così
DR11 -0.34 dB -18.72 dB 2:03 10-Mattinata
DR13 -2.57 dB -20.25 dB 4:46 11-Volare
DR13 -1.00 dB -20.78 dB 3:12 12-Parla più piano
DR12 -0.10 dB -18.13 dB 3:06 13-Non ti scordar di me
DR12 -0.13 dB -19.69 dB 3:24 14-Musica proibita
DR10 -2.09 dB -20.89 dB 3:33 15-Rondine al nido
DR12 -0.16 dB -16.22 dB 4:59 16-Catari', Catari' (Core 'ngrato)
DR13 -0.11 dB -19.80 dB 5:38 17-Caruso
DR11 -12.21 dB -28.24 dB 1:52 18-Wiegenlied, Op. 49, No. 4 (Brahms Lullaby)
––––––––––––––––––––––––––––––––––––––––

Number of tracks: 18
Official DR value: DR12

Samplerate: 96000 Hz
Channels: 2
Bits per sample: 24
Bitrate: 2044 kbps
Codec: FLAC
================================================================================



Thanks to the Original customer.