Josienne Clarke - In All Weather (2019) [Official Digital Download 24/96]

Posted By: Pisulik
Josienne Clarke - In All Weather (2019) [Official Digital Download 24/96]

Josienne Clarke - In All Weather (2019)
FLAC (tracks) 24-bit/96 kHz | Time - 32:21 minutes | 637 MB
Studio Master, Official Digital Download | Artwork: Front cover

First sollo album in which, Josienne Clarke finds her life laid bare and played out in the leave-it-all-behind-and-start-anew nature of the lyrics. Josienne accompanies herself on pared-back acoustic and electric guitar throughout. She's joined on the album by experimental piano prodigy Elliott Galvin, innovative jazz drummer Dave Hamblett, celebrated Scottish harpist Mary Ann Kennedy and guitarist/bassist Sonny Johns who co-produced the record with Josienne.

Tracklist:

1. (Learning to Sail) In All Weather (2:56)
2. Seconds (2:38)
3. The Drawing of the Line (2:47)
4. Leaving London (2:19)
5. My Love Gave Me an Apple (2:12)
6. If I Didn't Mind (3:34)
7. Host (1:50)
8. Slender, Sad & Sentimental (2:31)
9. Season & Time (2:11)
10. Walls and Hallways (2:46)
11. Fair Weather Friends (1:00)
12. Dark Cloud (3:33)
13. Onliness (2:12)

foobar2000 1.3.7 / Dynamic Range Meter 1.1.1
log date: 2019-11-08 14:19:48

––––––––––––––––––––––––––––––––––––––––
Analyzed: Josienne Clarke / In All Weather
––––––––––––––––––––––––––––––––––––––––

DR Peak RMS Duration Track
––––––––––––––––––––––––––––––––––––––––
DR8 -0.48 dB -10.29 dB 2:56 01-(Learning to Sail) In All Weather
DR11 -0.48 dB -14.86 dB 2:38 02-Seconds
DR8 -0.48 dB -10.74 dB 2:47 03-The Drawing of the Line
DR10 -0.48 dB -12.57 dB 2:19 04-Leaving London
DR7 -0.48 dB -10.36 dB 2:12 05-My Love Gave Me an Apple
DR7 -0.48 dB -8.76 dB 3:34 06-If I Didn't Mind
DR7 -0.48 dB -12.22 dB 1:50 07-Host
DR8 -0.48 dB -10.54 dB 2:31 08-Slender, Sad & Sentimental
DR9 -0.48 dB -12.55 dB 2:11 09-Season and Time
DR10 -0.48 dB -12.30 dB 2:46 10-Walls and Hallways
DR9 -0.77 dB -13.08 dB 1:00 11-Fair Weather Friends
DR9 -0.48 dB -11.55 dB 3:33 12-Dark Cloud
DR9 -0.48 dB -12.41 dB 2:12 13-Onliness
––––––––––––––––––––––––––––––––––––––––

Number of tracks: 13
Official DR value: DR9

Samplerate: 96000 Hz
Channels: 2
Bits per sample: 24
Bitrate: 2411 kbps
Codec: FLAC
================================================================================


All thanks go to the original releaser