Kate Bush - Remastered Part I (2018) [Official Digital Download]

Posted By: SERTiL
Kate Bush - Remastered Part I (2018) [Official Digital Download]

Kate Bush - Remastered Part I (2018)
FLAC (tracks) 24-bit/44.1 kHz | Time - 160:38 minutes | 2.46 GB
Studio Master, Official Digital Download | Artwork: Front Cover

Kate Bush Remastered Studio Albums And Rarities: This is the first (and definitive) program of remastering undertaken by the artist and includes the release of many rarities and cover versions for the first time.

Kate Bush is one of the UK music scene's most individual, creative and iconic solo pop stars. In her four decades in the public eye, her hits have included Wuthering Heights, Hounds Of Love, Cloudbusting and Running Up That Hill. She has won Brit and Ivor Novello Awards, and her music was used during the 2012 London Olympics Closing Ceremony. After being given a CBE by Queen Elizabeth II for her contributions to music in 2013, she returned to the stage for the first time in more than 30 years for 2014's rapturously received (and immediately sold out) Before The Dawn shows at London's Hammersmith Apollo.

Kate Bush's influence can be seen and heard in contemporary artists such as Florence + The Machine, Tori Amos, Lady Gaga, Bat For Lashes, Marina & The Diamonds and Goldfrapp. She has collaborated with artists including Prince, Peter Gabriel, Pink Floyd's David Gilmour and Stephen Fry.

Albums included in Part I: The Kick Inside, Lionheart, Never For Ever, The Dreaming, Hounds of Love, The Sensual World, The Red Shoes

Tracklist:
1. Moving (2018 Remaster) 03:00
2. The Saxophone Song (2018 Remaster) 03:54
3. Strange Phenomena (2018 Remaster) 02:56
4. Kite (2018 Remaster) 02:57
5. The Man With The Child In His Eyes (2018 Remaster) 02:41
6. Wuthering Heights (2018 Remaster) 04:28
7. James And The Cold Gun (2018 Remaster) 03:36
8. Feel It (2018 Remaster) 03:02
9. Oh To Be In Love (2018 Remaster) 03:18
10. L'Amour Looks Something Like You (2018 Remaster) 02:28
11. Them Heavy People (2018 Remaster) 03:04
12. Room For The Life (2018 Remaster) 04:06
13. The Kick Inside (2018 Remaster) 03:35
14. Symphony In Blue (2018 Remaster) 03:36
15. In Search Of Peter Pan (2018 Remaster) 03:47
16. Wow (2018 Remaster) 04:01
17. Don't Push Your Foot On The Heartbrake (2018 Remaster) 03:15
18. Oh England My Lionheart (2018 Remaster) 03:12
19. Full House (2018 Remaster) 03:14
20. In The Warm Room (2018 Remaster) 03:36
21. Kashka From Baghdad (2018 Remaster) 03:56
22. Coffee Homeground (2018 Remaster) 03:39
23. Hammer Horror (2018 Remaster) 04:40
24. Babooshka (2018 Remaster) 03:19
25. Delius (2018 Remaster) 02:51
26. Blow Away (2018 Remaster) 03:34
27. All We Ever Look For (2018 Remaster) 03:47
28. Egypt (2018 Remaster) 04:11
29. The Wedding List (2018 Remaster) 04:15
30. Violin (2018 Remaster) 03:15
31. The Infant Kiss (2018 Remaster) 02:49
32. Night Scented Stock (2018 Remaster) 00:52
33. Army Dreamers (2018 Remaster) 02:59
34. Breathing (2018 Remaster) 05:30
35. Sat In Your Lap (2018 Remaster) 03:29
36. There Goes A Tenner (2018 Remaster) 03:24
37. Pull Out The Pin (2018 Remaster) 05:25
38. Suspended In Gaffa (2018 Remaster) 03:54
39. Leave It Open (2018 Remaster) 03:19
40. The Dreaming (2018 Remaster) 04:40
41. Night Of The Swallow (2018 Remaster) 05:22
42. All The Love (2018 Remaster) 04:28
43. Houdini (2018 Remaster) 03:49
44. Get Out Of My House (2018 Remaster) 05:25

Digitally remastered

foobar2000 1.3.7 / Dynamic Range Meter 1.1.1
log date: 2018-11-17 12:36:44

––––––––––––––––––––––––––––––––––––––––
Analyzed: Kate Bush / Remastered Part I
––––––––––––––––––––––––––––––––––––––––

DR Peak RMS Duration Track
––––––––––––––––––––––––––––––––––––––––
DR12 -0.86 dB -14.76 dB 3:01 01-Moving (2018 Remaster)
DR11 -1.09 dB -15.64 dB 3:55 02-The Saxophone Song (2018 Remaster)
DR12 -2.90 dB -17.82 dB 2:57 03-Strange Phenomena (2018 Remaster)
DR12 -1.16 dB -15.62 dB 2:58 04-Kite (2018 Remaster)
DR9 -3.26 dB -15.88 dB 2:41 05-The Man With The Child In His Eyes (2018 Remaster)
DR11 -0.92 dB -14.62 dB 4:29 06-Wuthering Heights (2018 Remaster)
DR10 -1.15 dB -14.15 dB 3:36 07-James And The Cold Gun (2018 Remaster)
DR11 -3.54 dB -17.91 dB 3:03 08-Feel It (2018 Remaster)
DR11 -0.50 dB -14.78 dB 3:18 09-Oh To Be In Love (2018 Remaster)
DR12 -1.16 dB -15.29 dB 2:28 10-L'Amour Looks Something Like You (2018 Remaster)
DR12 -1.70 dB -16.30 dB 3:05 11-Them Heavy People (2018 Remaster)
DR11 -1.59 dB -16.11 dB 4:06 12-Room For The Life (2018 Remaster)
DR11 -4.17 dB -18.76 dB 3:36 13-The Kick Inside (2018 Remaster)
DR13 -0.75 dB -16.15 dB 3:37 14-Symphony In Blue (2018 Remaster)
DR13 0.00 dB -17.38 dB 3:47 15-In Search Of Peter Pan (2018 Remaster)
DR12 -1.02 dB -17.16 dB 4:01 16-Wow (2018 Remaster)
DR12 -0.20 dB -16.70 dB 3:16 17-Don't Push Your Foot On The Heartbrake (2018 Remaster)
DR11 -3.92 dB -18.45 dB 3:12 18-Oh England My Lionheart (2018 Remaster)
DR13 -0.30 dB -15.41 dB 3:14 19-Full House (2018 Remaster)
DR13 -3.97 dB -22.13 dB 3:36 20-In The Warm Room (2018 Remaster)
DR14 -0.34 dB -17.99 dB 3:57 21-Kashka From Baghdad (2018 Remaster)
DR12 -3.92 dB -18.52 dB 3:39 22-Coffee Homeground (2018 Remaster)
DR13 -0.05 dB -16.57 dB 4:40 23-Hammer Horror (2018 Remaster)
DR12 -0.95 dB -16.29 dB 3:19 24-Babooshka (2018 Remaster)
DR12 -4.30 dB -19.02 dB 2:51 25-Delius (2018 Remaster)
DR14 -1.36 dB -17.83 dB 3:34 26-Blow Away (2018 Remaster)
DR13 -1.63 dB -17.83 dB 3:48 27-All We Ever Look For (2018 Remaster)
DR12 -1.25 dB -16.81 dB 4:11 28-Egypt (2018 Remaster)
DR13 -0.42 dB -15.93 dB 4:15 29-The Wedding List (2018 Remaster)
DR12 -1.61 dB -15.08 dB 3:15 30-Violin (2018 Remaster)
DR12 -2.42 dB -17.81 dB 2:49 31-The Infant Kiss (2018 Remaster)
DR10 -5.45 dB -21.62 dB 0:52 32-Night Scented Stock (2018 Remaster)
DR13 -2.16 dB -18.33 dB 2:59 33-Army Dreamers (2018 Remaster)
DR13 -0.70 dB -17.38 dB 5:30 34-Breathing (2018 Remaster)
DR12 -0.79 dB -15.56 dB 3:29 35-Sat In Your Lap (2018 Remaster)
DR12 -1.80 dB -16.12 dB 3:25 36-There Goes A Tenner (2018 Remaster)
DR12 -2.01 dB -16.18 dB 5:26 37-Pull Out The Pin (2018 Remaster)
DR10 -2.57 dB -15.88 dB 3:55 38-Suspended In Gaffa (2018 Remaster)
DR10 -0.71 dB -14.22 dB 3:20 39-Leave It Open (2018 Remaster)
DR11 0.00 dB -14.00 dB 4:41 40-The Dreaming (2018 Remaster)
DR10 -0.82 dB -15.20 dB 5:22 41-Night Of The Swallow (2018 Remaster)
DR11 -3.21 dB -18.02 dB 4:29 42-All The Love (2018 Remaster)
DR12 -2.46 dB -19.62 dB 3:49 43-Houdini (2018 Remaster)
DR10 -2.18 dB -14.78 dB 5:25 44-Get Out Of My House (2018 Remaster)
––––––––––––––––––––––––––––––––––––––––

Number of tracks: 44
Official DR value: DR12

Samplerate: 44100 Hz
Channels: 2
Bits per sample: 24
Bitrate: 1511 kbps
Codec: FLAC
================================================================================


Thanks to the Original customer.