Kayak - Seventeen (2018) [Official Digital Download]

Posted By: SERTiL
Kayak - Seventeen (2018) [Official Digital Download]

Kayak - Seventeen (2018)
FLAC (tracks) 24-bit/96 kHz | Time - 59:58 minutes | 727 MB
Studio Master, Official Digital Download | Artwork: Front Cover

2018 release, the seventeenth album from legendary Dutch progressive rock band Kayak. The band's mastermind Ton Scherpenzeel comments: "Kayak are excited about signing to InsideOutMusic, and are looking forward to a long lasting and successful collaboration. The combination of the band with an almost complete new line up, and a new record company seems very promising and will hopefully open new doors for us!" Kayak was founded in 1972 by keyboardist/composer Ton Scherpenzeel. Often compared to contemporaries like Yes and Focus, the band quickly developed their own style of symphonic rock that was rather concentrating on songs than elaborate solos and long instrumental passages while Kayak never shied away from including epic, longer tracks and captivating, dramatic arrangements. Throughout the years, Kayak has seen many line-up changes with Ton Scherpenzeel now being the only original member and leader of the band.

Tracklist:
01. Somebody
02. La Peregrina
03. Falling
04. Feathers and Tar
05. Walk Through Fire
06. Ripples on the Water
07. All That I Want
08. X Marks the Spot
09. God on Our Side
10. Love, Sail Away
11. Cracks
12. To an End

Personnel:
Ton Scherpenzeel / keyboards
Bart Schwertmann / vocals
Marcel Singor / guitar
Kristoffer Gildenlöw / bass
Collin Leijenaar (Neal Morse) / drums
With:
Andy Latimer (Camel) / guitar

foobar2000 1.3.7 / Dynamic Range Meter 1.1.1
log date: 2018-01-14 17:43:19

––––––––––––––––––––––––––––––––––––––––
Analyzed: Kayak / Seventeen
––––––––––––––––––––––––––––––––––––––––

DR Peak RMS Duration Track
––––––––––––––––––––––––––––––––––––––––
DR8 -1.10 dB -10.30 dB 3:04 01-Somebody
DR8 -1.10 dB -10.97 dB 11:42 02-La Peregrina
DR8 -1.10 dB -11.07 dB 3:09 03-Falling
DR8 -1.10 dB -10.29 dB 3:14 04-Feathers and Tar
DR7 -1.10 dB -10.14 dB 10:24 05-Walk Through Fire
DR9 -1.10 dB -15.76 dB 3:40 06-Ripples on the Water
DR7 -1.10 dB -9.24 dB 3:48 07-All That I Want
DR12 -1.72 dB -16.10 dB 1:58 08-X Marks the Spot
DR8 -1.10 dB -10.07 dB 3:31 09-God on Our Side
DR7 -1.10 dB -10.22 dB 3:13 10-Love, Sail Away
DR7 -1.10 dB -10.32 dB 8:50 11-Cracks
DR10 -3.01 dB -17.08 dB 3:31 12-To an End
––––––––––––––––––––––––––––––––––––––––

Number of tracks: 12
Official DR value: DR8

Samplerate: 48000 Hz
Channels: 2
Bits per sample: 24
Bitrate: 1353 kbps
Codec: FLAC
================================================================================


Thanks to the Original customer.