Tags
Language
Tags

Keith Jarrett - Sun Bear Concerts (1978/2021) [Official Digital Download 24/96]

Posted By: pyatak
Keith Jarrett - Sun Bear Concerts (1978/2021) [Official Digital Download 24/96]

Keith Jarrett - Sun Bear Concerts (1978/2021) [Official Digital Download 24/96]
FLAC (tracks) 24-bit/96 kHz | Front Cover | Time - 06:41:54 minutes | 7,8 GB
Jazz | Label: ECM, Official Digital Download

Sun Bear Concerts is a multi-concert album compilation of solo piano performances by Keith Jarrett that took place during his November 1976 tour in Japan. It was originally released as a ten-LP set and then as a six-CD box set containing 5 concerts plus encores, totalling 6:37:46 of music (applause included).

The structures of the documented concerts follow a similar pattern: two very long non-stop improvisations (from 31 to 43 minutes approx) plus a possible encore. Accordingly, it was not until the 1989 CD release (ECM 1100, 843 028-2) that the full performances could be heard as a whole.

In a 1979 interview, Jarrett stated: "I was involved in a very searching period of time when we recorded that, and the music itself was almost a release for the search. I've been thinking – Sun Bear is the only thing I've recorded that runs the gamut of human emotion. I think that if you got to know it well enough, you'd find it all in there someplace." Jarrett explained the origins of the title as follows: "On a Japanese tour I saw a sun bear in the zoo, a small bear which really looked friendly and doesn't exist anywhere outside Japan. The next day I asked our Japanese sound engineer about this animal because I remembered its face, a really friendly small face, and he replied, 'Yes, it's a beautiful bear but if you get near enough to him he will knock you three blocks down the road'. I simply liked the idea of an animal that looks as if it would be nice to get near to and which, when you do so, shakes your whole conception of life."

TRACKLIST

1. Keith Jarrett - Kyoto - November 5, 1976, Pt. 1 (Live)
2. Keith Jarrett - Kyoto - November 5, 1976, Pt. 2 (Live)
3. Keith Jarrett - Osaka - November 8, 1976, Pt. 1 (Live)
4. Keith Jarrett - Osaka - November 8, 1976, Pt. 2 (Live)
5. Keith Jarrett - Nagoya - November 12, 1976, Pt. 1 (Live)
6. Keith Jarrett - Nagoya - November 12, 1976, Pt. 2 (Live)
7. Keith Jarrett - Tokyo - November 14, 1976, Pt. 1 (Live)
8. Keith Jarrett - Tokyo - November 14, 1976, Pt. 2 (Live)
9. Keith Jarrett - Sapporo - November 18, 1976, Pt. 1 (Live)
10. Keith Jarrett - Sapporo - November 18, 1976, Pt. 2 (Live)

foobar2000 1.6.2 / Dynamic Range Meter 1.1.1
log date: 2021-07-29 23:19:31

––––––––––––––––––––––––––––––––––––––––
Analyzed: Keith Jarrett / Sun Bear Concerts
––––––––––––––––––––––––––––––––––––––––

DR Peak RMS Duration Track
––––––––––––––––––––––––––––––––––––––––
DR13 -1.01 dB -18.86 dB 44:24 01-Kyoto - November 5, 1976, Pt. 1 (Live)
DR12 -0.95 dB -17.70 dB 35:25 02-Kyoto - November 5, 1976, Pt. 2 (Live)
DR13 -1.13 dB -19.14 dB 39:01 03-Osaka - November 8, 1976, Pt. 1 (Live)
DR14 -0.86 dB -20.32 dB 31:09 04-Osaka - November 8, 1976, Pt. 2 (Live)
DR14 -0.91 dB -19.65 dB 36:03 05-Nagoya - November 12, 1976, Pt. 1 (Live)
DR14 -0.94 dB -20.72 dB 44:19 06-Nagoya - November 12, 1976, Pt. 2 (Live)
DR15 -0.92 dB -20.71 dB 40:40 07-Tokyo - November 14, 1976, Pt. 1 (Live)
DR13 -0.94 dB -19.14 dB 44:05 08-Tokyo - November 14, 1976, Pt. 2 (Live)
DR13 -0.70 dB -18.88 dB 41:17 09-Sapporo - November 18, 1976, Pt. 1 (Live)
DR14 -0.88 dB -18.91 dB 45:36 10-Sapporo - November 18, 1976, Pt. 2 (Live)
––––––––––––––––––––––––––––––––––––––––

Number of tracks: 10
Official DR value: DR14

Samplerate: 96000 Hz
Channels: 2
Bits per sample: 24
Bitrate: 2810 kbps
Codec: FLAC
================================================================================



Thanks to the Original customer.