Kiss - Alive III (1993/2014) [Official Digital Download 24/192]

Posted By: pyatak
Kiss - Alive III (1993/2014) [Official Digital Download 24/192]

Kiss - Alive III (1993/2014) [Official Digital Download 24/192]
FLAC (tracks) 24-bit/192 kHz | Front Cover | Time - 72:52 minutes | 3,14 GB
Rock, Hard Rock | Label: UMe Direct 2, Official Digital Download

Alive III is a live album released by the American hard rock band Kiss in 1993. It was certified gold in 1994. It is the third installment of the Alive series. The recording of Alive III took place over multiple dates (in Cleveland, Detroit and Indianapolis) during the band's 1992 tour in support of Revenge.

It was the first live album the band had released since 1977's Alive II, and the first live recordings released since 1984's Animalize Live Uncensored concert film. The recording of "I Was Made For Lovin' You" was actually recorded at one of the band's soundchecks, but had the crowd overdubbed in the song to make it appear as if it is "live," which led to speculation that many other songs on "Alive III" could be overdubbed, just as was done on the first two in the series.

The album is the only live Kiss album released during the group's non-makeup era, excluding Kiss Unplugged, released later in 1996. During the recording of Alive II, Kiss did not want to duplicate songs from Alive!, although some songs from Alive III are duplicate songs from their previous live albums. For example, "Rock and Roll All Nite" was performed on Alive! and again on Alive III, but was not featured on Alive II. It is also the first Kiss live album to feature a different lineup to the previous two, which featured the original lineup.

The liner notes of Alive III include a family tree showing the various Kiss lineups from 1973–1993, as well as bands that the then-current and former members of Kiss were in. It was designed by the band's Japanese fan club. Black Sabbath's Tony Iommi, for whom Eric Singer drummed in 1986–87, is misnamed Tommy. The notes also mistakenly claim that "Watchin' You" is from Kiss, and "I Was Made for Lovin' You" from Dressed to Kill. The re-release of Alive III (as part of the Kiss Alive! 1975–2000 box set) contains an additional track, "Take It Off", matching the original international CD and US vinyl versions of the album.

TRACKLIST

1. Kiss - Creatures Of The Night (Live)
2. Kiss - Deuce (Live)
3. Kiss - I Just Wanna (Live)
4. Kiss - Unholy (Live)
5. Kiss - Heaven's On Fire (Live)
6. Kiss - Watchin' You (Live)
7. Kiss - Domino (Live)
8. Kiss - I Was Made For Lovin' You (Live)
9. Kiss - I Still Love You (Live)
10. Kiss - Rock And Roll All Nite (Live)
11. Kiss - Lick It Up (Live)
12. Kiss - Forever (Live)
13. Kiss - Take It Off (Live)
14. Kiss - I Love It Loud (Live "Alive III" Version)
15. Kiss - Detroit Rock City (Live)
16. Kiss - God Gave Rock 'N' Roll To You II (Live)
17. Kiss - Star Spangled Banner (Live)

foobar2000 1.6.2 / Dynamic Range Meter 1.1.1
log date: 2021-05-30 12:12:26

––––––––––––––––––––––––––––––––––––––––
Analyzed: Kiss / Alive III
––––––––––––––––––––––––––––––––––––––––

DR Peak RMS Duration Track
––––––––––––––––––––––––––––––––––––––––
DR10 0.00 dB -11.34 dB 4:41 01-Creatures Of The Night (Live)
DR11 -0.08 dB -12.31 dB 3:43 02-Deuce (Live)
DR12 -0.01 dB -12.63 dB 4:22 03-I Just Wanna (Live)
DR10 -0.42 dB -12.50 dB 3:43 04-Unholy (Live)
DR11 0.00 dB -12.15 dB 4:02 05-Heaven's On Fire (Live)
DR11 -0.03 dB -12.57 dB 3:37 06-Watchin' You (Live)
DR11 0.00 dB -11.67 dB 3:49 07-Domino (Live)
DR11 0.00 dB -12.08 dB 4:30 08-I Was Made For Lovin' You (Live)
DR12 0.00 dB -13.23 dB 5:58 09-I Still Love You (Live)
DR12 0.00 dB -12.54 dB 3:43 10-Rock And Roll All Nite (Live)
DR11 0.00 dB -12.20 dB 4:24 11-Lick It Up (Live)
DR12 0.00 dB -13.20 dB 4:16 12-Forever (Live)
DR11 0.00 dB -12.37 dB 5:40 13-Take It Off (Live)
DR11 0.00 dB -12.89 dB 3:50 14-I Love It Loud (Live "Alive III" Version)
DR11 0.00 dB -12.26 dB 5:04 15-Detroit Rock City (Live)
DR11 0.00 dB -12.47 dB 5:22 16-God Gave Rock 'N' Roll To You II (Live)
DR11 -0.09 dB -13.13 dB 2:18 17-Star Spangled Banner (Live)
––––––––––––––––––––––––––––––––––––––––

Number of tracks: 17
Official DR value: DR11

Samplerate: 192000 Hz
Channels: 2
Bits per sample: 24
Bitrate: 5922 kbps
Codec: FLAC
================================================================================



Thanks to the Original customer.