Kiss - Revenge (1992/2014) [Official Digital Download 24/192]

Posted By: pyatak
Kiss - Revenge (1992/2014) [Official Digital Download 24/192]

Kiss - Revenge (1992/2014) [Official Digital Download 24/192]
FLAC (tracks) 24-bit/192 kHz | Front Cover | Time - 48:57 minutes | 2,02 GB
Rock, Hard Rock | Label: UMe Direct 2, Official Digital Download

Revenge is the 16th studio album by Kiss, released in 1992. It was the band's first album after the death of long-time drummer Eric Carr in November 1991. His replacement, Eric Singer, had played with Lita Ford, Black Sabbath, Badlands, Brian May, Alice Cooper, and Paul Stanley as a solo artist, among others.

The album was dedicated to Carr, and the last track ("Carr Jam 1981") was a demo he had recorded soon after joining the group. One modification to the song, however, was the dubbing of Bruce Kulick's guitar over Ace Frehley's, which originally appeared. The main riff of the song was used as the basis for the Frehley's Comet song "Breakout", found on 1987's Frehley's Comet.

TRACKLIST

1. Kiss - Unholy
2. Kiss - Take It Off
3. Kiss - Tough Love
4. Kiss - Spit
5. Kiss - God Gave Rock 'N' Roll To You II
6. Kiss - Domino
7. Kiss - Heart Of Chrome
8. Kiss - Thou Shalt Not
9. Kiss - Every Time I Look At You
10. Kiss - Paralyzed
11. Kiss - I Just Wanna
12. Kiss - Carr Jam 1981

foobar2000 1.6.2 / Dynamic Range Meter 1.1.1
log date: 2021-05-30 20:36:33

––––––––––––––––––––––––––––––––––––––––
Analyzed: Kiss / Revenge
––––––––––––––––––––––––––––––––––––––––

DR Peak RMS Duration Track
––––––––––––––––––––––––––––––––––––––––
DR10 0.00 dB -12.01 dB 3:44 01-Unholy
DR10 0.00 dB -11.59 dB 4:51 02-Take It Off
DR10 0.00 dB -10.93 dB 3:44 03-Tough Love
DR10 0.00 dB -11.84 dB 3:33 04-Spit
DR10 0.00 dB -12.30 dB 5:20 05-God Gave Rock 'N' Roll To You II
DR11 0.00 dB -13.23 dB 4:01 06-Domino
DR10 0.00 dB -11.79 dB 4:03 07-Heart Of Chrome
DR11 0.00 dB -12.43 dB 4:00 08-Thou Shalt Not
DR11 0.00 dB -15.59 dB 4:40 09-Every Time I Look At You
DR11 0.00 dB -12.75 dB 4:15 10-Paralyzed
DR10 0.00 dB -12.65 dB 4:08 11-I Just Wanna
DR10 0.00 dB -12.39 dB 2:44 12-Carr Jam 1981
––––––––––––––––––––––––––––––––––––––––

Number of tracks: 12
Official DR value: DR10

Samplerate: 192000 Hz
Channels: 2
Bits per sample: 24
Bitrate: 5824 kbps
Codec: FLAC
================================================================================



Thanks to the Original customer.