Subcategories

Kiss - Carnival Of Souls: The Final Sessions (1997/2014) [TR24][OF]

Posted By: SERTiL
Kiss - Carnival Of Souls: The Final Sessions (1997/2014) [TR24][OF]

Kiss - Carnival Of Souls: The Final Sessions
Hard Rock | FLAC (tracks) 24-bit/192 kHz | 60:16 min | 2.43 GB | Front Cover
Label: Mercury Records | Tracks: 12 | Rls.date: 1997/2014

Carnival of Souls: The Final Sessions is the 17th studio album from American rock band Kiss. Originally slated for a 1996 release, it was ultimately not released until 1997. It was the band's final album with lead guitarist Bruce Kulick. The album is a departure from the band's classic hard rock style, in favor of a dark and dense grunge-oriented sound.

TRACKLIST
01. Hate
02. Rain
03. Master & Slave
04. Childhood's End
05. I Will Be There
06. Jungle
07. In My Head
08. It Never Goes Away
09. Seduction Of The Innocent
10. I Confess
11. In The Mirror
12. I Walk Alone

foobar2000 1.3.7 / Замер динамического диапазона (DR) 1.1.1
Дата отчёта: 2017-01-10 20:45:48

––––––––––––––––––––––––––––––––––––––––
Анализ: Kiss / Carnival Of Souls: The Final Sessions
––––––––––––––––––––––––––––––––––––––––

DR Пики RMS Продолжительность трека
––––––––––––––––––––––––––––––––––––––––
DR10 0.00 дБ -11.84 дБ 4:37 01-Hate
DR10 0.00 дБ -11.17 дБ 4:48 02-Rain
DR10 0.00 дБ -11.94 дБ 4:58 03-Master & Slave
DR10 -0.01 дБ -11.61 дБ 4:22 04-Childhood's End
DR10 0.00 дБ -11.87 дБ 3:48 05-I Will Be There
DR11 0.00 дБ -12.00 дБ 6:51 06-Jungle
DR11 0.00 дБ -12.72 дБ 4:05 07-In My Head
DR11 0.00 дБ -12.60 дБ 5:43 08-It Never Goes Away
DR10 0.00 дБ -11.53 дБ 5:17 09-Seduction Of The Innocent
DR9 0.00 дБ -11.03 дБ 5:23 10-I Confess
DR10 0.00 дБ -11.76 дБ 4:26 11-In The Mirror
DR10 0.00 дБ -12.21 дБ 6:07 12-I Walk Alone
––––––––––––––––––––––––––––––––––––––––

Количество треков: 12
Реальные значения DR: DR10

Частота: 192000 Гц
Каналов: 2
Разрядность: 24
Битрейт: 5653 кбит/с
Кодек: FLAC
================================================================================


Thanks to the Original customer.